  0
SECTION
  2
HEADER
  9
$ACADVER
  1
AC1015
  9
$ACADMAINTVER
 70
     6
  9
$DWGCODEPAGE
  3
ANSI_1252
  9
$INSBASE
 10
0.0
 20
0.0
 30
0.0
  9
$EXTMIN
 10
-420.0000000000002
 20
0.0
 30
0.0
  9
$EXTMAX
 10
0.0
 20
594.0000000000002
 30
0.0
  9
$LIMMIN
 10
0.0
 20
0.0
  9
$LIMMAX
 10
12.0
 20
9.0
  9
$ORTHOMODE
 70
     0
  9
$REGENMODE
 70
     1
  9
$FILLMODE
 70
     1
  9
$QTEXTMODE
 70
     0
  9
$MIRRTEXT
 70
     1
  9
$LTSCALE
 40
1.0
  9
$ATTMODE
 70
     1
  9
$TEXTSIZE
 40
0.2
  9
$TRACEWID
 40
0.05
  9
$TEXTSTYLE
  7
Standard
  9
$CLAYER
  8
0
  9
$CELTYPE
  6
ByLayer
  9
$CECOLOR
 62
   256
  9
$CELTSCALE
 40
1.0
  9
$DISPSILH
 70
     0
  9
$DIMSCALE
 40
1.0
  9
$DIMASZ
 40
0.18
  9
$DIMEXO
 40
0.0625
  9
$DIMDLI
 40
0.38
  9
$DIMRND
 40
0.0
  9
$DIMDLE
 40
0.0
  9
$DIMEXE
 40
0.18
  9
$DIMTP
 40
0.0
  9
$DIMTM
 40
0.0
  9
$DIMTXT
 40
0.18
  9
$DIMCEN
 40
0.09
  9
$DIMTSZ
 40
0.0
  9
$DIMTOL
 70
     0
  9
$DIMLIM
 70
     0
  9
$DIMTIH
 70
     1
  9
$DIMTOH
 70
     1
  9
$DIMSE1
 70
     0
  9
$DIMSE2
 70
     0
  9
$DIMTAD
 70
     0
  9
$DIMZIN
 70
     0
  9
$DIMBLK
  1

  9
$DIMASO
 70
     1
  9
$DIMSHO
 70
     1
  9
$DIMPOST
  1

  9
$DIMAPOST
  1

  9
$DIMALT
 70
     0
  9
$DIMALTD
 70
     2
  9
$DIMALTF
 40
25.4
  9
$DIMLFAC
 40
1.0
  9
$DIMTOFL
 70
     0
  9
$DIMTVP
 40
0.0
  9
$DIMTIX
 70
     0
  9
$DIMSOXD
 70
     0
  9
$DIMSAH
 70
     0
  9
$DIMBLK1
  1

  9
$DIMBLK2
  1

  9
$DIMSTYLE
  2
Standard
  9
$DIMCLRD
 70
     0
  9
$DIMCLRE
 70
     0
  9
$DIMCLRT
 70
     0
  9
$DIMTFAC
 40
1.0
  9
$DIMGAP
 40
0.09
  9
$DIMJUST
 70
     0
  9
$DIMSD1
 70
     0
  9
$DIMSD2
 70
     0
  9
$DIMTOLJ
 70
     1
  9
$DIMTZIN
 70
     0
  9
$DIMALTZ
 70
     0
  9
$DIMALTTZ
 70
     0
  9
$DIMUPT
 70
     0
  9
$DIMDEC
 70
     4
  9
$DIMTDEC
 70
     4
  9
$DIMALTU
 70
     2
  9
$DIMALTTD
 70
     2
  9
$DIMTXSTY
  7
Standard
  9
$DIMAUNIT
 70
     0
  9
$DIMADEC
 70
     0
  9
$DIMALTRND
 40
0.0
  9
$DIMAZIN
 70
     0
  9
$DIMDSEP
 70
    46
  9
$DIMATFIT
 70
     3
  9
$DIMFRAC
 70
     0
  9
$DIMLDRBLK
  1

  9
$DIMLUNIT
 70
     2
  9
$DIMLWD
 70
    -2
  9
$DIMLWE
 70
    -2
  9
$DIMTMOVE
 70
     0
  9
$LUNITS
 70
     2
  9
$LUPREC
 70
     4
  9
$SKETCHINC
 40
0.1
  9
$FILLETRAD
 40
0.5
  9
$AUNITS
 70
     0
  9
$AUPREC
 70
     0
  9
$MENU
  1
.
  9
$ELEVATION
 40
0.0
  9
$PELEVATION
 40
0.0
  9
$THICKNESS
 40
0.0
  9
$LIMCHECK
 70
     0
  9
$CHAMFERA
 40
0.0
  9
$CHAMFERB
 40
0.0
  9
$CHAMFERC
 40
0.0
  9
$CHAMFERD
 40
0.0
  9
$SKPOLY
 70
     0
  9
$TDCREATE
 40
2457515.395042083
  9
$TDUCREATE
 40
2457515.31170875
  9
$TDUPDATE
 40
2457515.395042269
  9
$TDUUPDATE
 40
2457515.311708935
  9
$TDINDWG
 40
0.0000000116
  9
$TDUSRTIMER
 40
0.0000000116
  9
$USRTIMER
 70
     1
  9
$ANGBASE
 50
0.0
  9
$ANGDIR
 70
     0
  9
$PDMODE
 70
     0
  9
$PDSIZE
 40
0.0
  9
$PLINEWID
 40
0.0
  9
$SPLFRAME
 70
     0
  9
$SPLINETYPE
 70
     6
  9
$SPLINESEGS
 70
     8
  9
$HANDSEED
  5
226
  9
$SURFTAB1
 70
     6
  9
$SURFTAB2
 70
     6
  9
$SURFTYPE
 70
     6
  9
$SURFU
 70
     6
  9
$SURFV
 70
     6
  9
$UCSBASE
  2

  9
$UCSNAME
  2

  9
$UCSORG
 10
0.0
 20
0.0
 30
0.0
  9
$UCSXDIR
 10
1.0
 20
0.0
 30
0.0
  9
$UCSYDIR
 10
0.0
 20
1.0
 30
0.0
  9
$UCSORTHOREF
  2

  9
$UCSORTHOVIEW
 70
     0
  9
$UCSORGTOP
 10
0.0
 20
0.0
 30
0.0
  9
$UCSORGBOTTOM
 10
0.0
 20
0.0
 30
0.0
  9
$UCSORGLEFT
 10
0.0
 20
0.0
 30
0.0
  9
$UCSORGRIGHT
 10
0.0
 20
0.0
 30
0.0
  9
$UCSORGFRONT
 10
0.0
 20
0.0
 30
0.0
  9
$UCSORGBACK
 10
0.0
 20
0.0
 30
0.0
  9
$PUCSBASE
  2

  9
$PUCSNAME
  2

  9
$PUCSORG
 10
0.0
 20
0.0
 30
0.0
  9
$PUCSXDIR
 10
1.0
 20
0.0
 30
0.0
  9
$PUCSYDIR
 10
0.0
 20
1.0
 30
0.0
  9
$PUCSORTHOREF
  2

  9
$PUCSORTHOVIEW
 70
     0
  9
$PUCSORGTOP
 10
0.0
 20
0.0
 30
0.0
  9
$PUCSORGBOTTOM
 10
0.0
 20
0.0
 30
0.0
  9
$PUCSORGLEFT
 10
0.0
 20
0.0
 30
0.0
  9
$PUCSORGRIGHT
 10
0.0
 20
0.0
 30
0.0
  9
$PUCSORGFRONT
 10
0.0
 20
0.0
 30
0.0
  9
$PUCSORGBACK
 10
0.0
 20
0.0
 30
0.0
  9
$USERI1
 70
     0
  9
$USERI2
 70
     0
  9
$USERI3
 70
     0
  9
$USERI4
 70
     0
  9
$USERI5
 70
     0
  9
$USERR1
 40
19.0
  9
$USERR2
 40
0.0
  9
$USERR3
 40
0.0
  9
$USERR4
 40
0.0
  9
$USERR5
 40
0.0
  9
$WORLDVIEW
 70
     1
  9
$SHADEDGE
 70
     3
  9
$SHADEDIF
 70
    70
  9
$TILEMODE
 70
     1
  9
$MAXACTVP
 70
    64
  9
$PINSBASE
 10
0.0
 20
0.0
 30
0.0
  9
$PLIMCHECK
 70
     0
  9
$PEXTMIN
 10
1.00000000000000E+20
 20
1.00000000000000E+20
 30
1.00000000000000E+20
  9
$PEXTMAX
 10
-1.00000000000000E+20
 20
-1.00000000000000E+20
 30
-1.00000000000000E+20
  9
$PLIMMIN
 10
0.0
 20
0.0
  9
$PLIMMAX
 10
12.0
 20
9.0
  9
$UNITMODE
 70
     0
  9
$VISRETAIN
 70
     1
  9
$PLINEGEN
 70
     0
  9
$PSLTSCALE
 70
     1
  9
$TREEDEPTH
 70
  3020
  9
$CMLSTYLE
  2
Standard
  9
$CMLJUST
 70
     0
  9
$CMLSCALE
 40
1.0
  9
$PROXYGRAPHICS
 70
     1
  9
$MEASUREMENT
 70
     1
  9
$CELWEIGHT
370
    -1
  9
$ENDCAPS
280
     0
  9
$JOINSTYLE
280
     0
  9
$LWDISPLAY
290
     0
  9
$INSUNITS
 70
     4
  9
$HYPERLINKBASE
  1

  9
$STYLESHEET
  1

  9
$XEDIT
290
     1
  9
$CEPSNTYPE
380
     0
  9
$PSTYLEMODE
290
     1
  9
$FINGERPRINTGUID
  2
{1003794B-101B-4096-809F-538ACE2EB1E3}
  9
$VERSIONGUID
  2
{FAEB1C32-E019-11D5-929B-00C0DF256EC4}
  9
$EXTNAMES
290
     1
  9
$PSVPSCALE
 40
0.0
  9
$OLESTARTUP
290
     0
  0
ENDSEC
  0
SECTION
  2
CLASSES
  0
CLASS
  1
ACDBDICTIONARYWDFLT
  2
AcDbDictionaryWithDefault
  3
ObjectDBX Classes
 90
        0
280
     0
281
     0
  0
CLASS
  1
VISUALSTYLE
  2
AcDbVisualStyle
  3
ObjectDBX Classes
 90
     4095
280
     0
281
     0
  0
CLASS
  1
MATERIAL
  2
AcDbMaterial
  3
ObjectDBX Classes
 90
     1153
280
     0
281
     0
  0
CLASS
  1
SCALE
  2
AcDbScale
  3
ObjectDBX Classes
 90
     1153
280
     0
281
     0
  0
CLASS
  1
SUN
  2
AcDbSun
  3
SCENEOE
 90
     1153
280
     0
281
     0
  0
CLASS
  1
DICTIONARYVAR
  2
AcDbDictionaryVar
  3
ObjectDBX Classes
 90
        0
280
     0
281
     0
  0
CLASS
  1
ACDBPLACEHOLDER
  2
AcDbPlaceHolder
  3
ObjectDBX Classes
 90
        0
280
     0
281
     0
  0
CLASS
  1
LAYOUT
  2
AcDbLayout
  3
ObjectDBX Classes
 90
        0
280
     0
281
     0
  0
ENDSEC
  0
SECTION
  2
TABLES
  0
TABLE
  2
VPORT
  5
8
330
0
100
AcDbSymbolTable
 70
     1
  0
VPORT
  5
29
330
8
100
AcDbSymbolTableRecord
100
AcDbViewportTableRecord
  2
*Active
 70
     0
 10
0.0
 20
0.0
 11
1.0
 21
1.0
 12
-210.0000000000001
 22
297.0000000000001
 13
0.0
 23
0.0
 14
0.5
 24
0.5
 15
0.5
 25
0.5
 16
0.0
 26
0.0
 36
1.0
 17
0.0
 27
0.0
 37
0.0
 40
653.4000000000003
 41
1.60267857142857
 42
50.0
 43
0.0
 44
0.0
 50
0.0
 51
0.0
 71
     0
 72
   100
 73
     1
 74
     3
 75
     0
 76
     0
 77
     0
 78
     0
281
     0
 65
     1
110
0.0
120
0.0
130
0.0
111
1.0
121
0.0
131
0.0
112
0.0
122
1.0
132
0.0
 79
     0
146
0.0
  0
ENDTAB
  0
TABLE
  2
LTYPE
  5
5
330
0
100
AcDbSymbolTable
 70
     8
  0
LTYPE
  5
14
330
5
100
AcDbSymbolTableRecord
100
AcDbLinetypeTableRecord
  2
ByBlock
 70
     0
  3

 72
    65
 73
     0
 40
0.0
  0
LTYPE
  5
15
330
5
100
AcDbSymbolTableRecord
100
AcDbLinetypeTableRecord
  2
ByLayer
 70
     0
  3

 72
    65
 73
     0
 40
0.0
  0
LTYPE
  5
16
330
5
100
AcDbSymbolTableRecord
100
AcDbLinetypeTableRecord
  2
Continuous
 70
     0
  3
Solid line
 72
    65
 73
     0
 40
0.0
  0
LTYPE
  5
6A
330
5
100
AcDbSymbolTableRecord
100
AcDbLinetypeTableRecord
  2
DASHED
 70
     0
  3
Dashed
 72
    65
 73
     2
 40
15.0
 49
7.0
 74
     0
 49
-8.0
 74
     0
  0
LTYPE
  5
6B
330
5
100
AcDbSymbolTableRecord
100
AcDbLinetypeTableRecord
  2
DOTTED
 70
     0
  3
Dotted
 72
    65
 73
     2
 40
1.0
 49
0.0
 74
     0
 49
-1.0
 74
     0
  0
LTYPE
  5
6C
330
5
100
AcDbSymbolTableRecord
100
AcDbLinetypeTableRecord
  2
DOT_CENTER
 70
     0
  3
Dot_Center
 72
    65
 73
     4
 40
14.0
 49
12.0
 74
     0
 49
-1.0
 74
     0
 49
0.0
 74
     0
 49
-1.0
 74
     0
  0
LTYPE
  5
6D
330
5
100
AcDbSymbolTableRecord
100
AcDbLinetypeTableRecord
  2
LONG_DASHED
 70
     0
  3
Long_Dashed
 72
    65
 73
     2
 40
15.0
 49
10.0
 74
     0
 49
-5.0
 74
     0
  0
LTYPE
  5
6E
330
5
100
AcDbSymbolTableRecord
100
AcDbLinetypeTableRecord
  2
DASH_CENTER
 70
     0
  3
Dash_Center
 72
    65
 73
     4
 40
14.0
 49
11.0
 74
     0
 49
-1.0
 74
     0
 49
1.0
 74
     0
 49
-1.0
 74
     0
  0
LTYPE
  5
6F
330
5
100
AcDbSymbolTableRecord
100
AcDbLinetypeTableRecord
  2
PHANTOM
 70
     0
  3
Phantom
 72
    65
 73
     6
 40
13.0
 49
10.0
 74
     0
 49
-1.0
 74
     0
 49
0.0
 74
     0
 49
-1.0
 74
     0
 49
0.0
 74
     0
 49
-1.0
 74
     0
  0
LTYPE
  5
70
330
5
100
AcDbSymbolTableRecord
100
AcDbLinetypeTableRecord
  2
CENTER_DASH_DASH
 70
     0
  3
Center_Dash_Dash
 72
    65
 73
     6
 40
14.0
 49
9.0
 74
     0
 49
-1.0
 74
     0
 49
1.0
 74
     0
 49
-1.0
 74
     0
 49
1.0
 74
     0
 49
-1.0
 74
     0
  0
ENDTAB
  0
TABLE
  2
LAYER
  5
2
330
0
100
AcDbSymbolTable
 70
     2
  0
LAYER
  5
10
330
2
100
AcDbSymbolTableRecord
100
AcDbLayerTableRecord
  2
0
 70
     0
 62
     7
  6
Continuous
370
    -3
390
F
  0
LAYER
  5
71
330
2
100
AcDbSymbolTableRecord
100
AcDbLayerTableRecord
  2
1
 70
     0
 62
     7
  6
Continuous
370
    -3
390
F
  0
ENDTAB
  0
TABLE
  2
STYLE
  5
3
330
0
100
AcDbSymbolTable
 70
     4
  0
STYLE
  5
11
330
3
100
AcDbSymbolTableRecord
100
AcDbTextStyleTableRecord
  2
Standard
 70
     0
 40
0.0
 41
1.0
 50
0.0
 71
     0
 42
0.2
  3
txt
  4

  0
STYLE
  5
CA
330
3
100
AcDbSymbolTableRecord
100
AcDbTextStyleTableRecord
  2
CONVERTER_11
 70
     0
 40
0.0
 41
1.2
 50
0.0
 71
     0
 42
0.2
  3
ARIAL.TTF
  4

  0
STYLE
  5
D3
330
3
100
AcDbSymbolTableRecord
100
AcDbTextStyleTableRecord
  2
CONVERTER_12
 70
     0
 40
0.0
 41
1.38
 50
0.0
 71
     0
 42
0.2
  3
ARIAL.TTF
  4

  0
STYLE
  5
19F
330
3
100
AcDbSymbolTableRecord
100
AcDbTextStyleTableRecord
  2
CONVERTER_13
 70
     0
 40
0.0
 41
0.95
 50
0.0
 71
     0
 42
0.2
  3
simplex.shx
  4

  0
ENDTAB
  0
TABLE
  2
VIEW
  5
6
330
0
100
AcDbSymbolTable
 70
     0
  0
ENDTAB
  0
TABLE
  2
UCS
  5
7
330
0
100
AcDbSymbolTable
 70
     0
  0
ENDTAB
  0
TABLE
  2
APPID
  5
9
330
0
100
AcDbSymbolTable
 70
     1
  0
APPID
  5
12
330
9
100
AcDbSymbolTableRecord
100
AcDbRegAppTableRecord
  2
ACAD
 70
     0
  0
ENDTAB
  0
TABLE
  2
DIMSTYLE
  5
A
330
0
100
AcDbSymbolTable
 70
     7
100
AcDbDimStyleTable
  0
DIMSTYLE
105
27
330
A
100
AcDbSymbolTableRecord
100
AcDbDimStyleTableRecord
  2
Standard
 70
     0
178
     0
340
11
  0
DIMSTYLE
105
1AC
102
{ACAD_REACTORS
330
1AD
102
}
330
A
100
AcDbSymbolTableRecord
100
AcDbDimStyleTableRecord
  2
ME10_DIM_10
 70
     0
 41
6.0
 42
1.0
 44
2.0
 73
     0
 74
     0
 77
     1
 78
     8
140
6.0
147
4.0
172
     1
173
     1
174
     1
175
     1
176
     7
177
     7
271
     2
178
     7
271
     2
340
19F
  0
DIMSTYLE
105
1B7
102
{ACAD_REACTORS
330
1B8
102
}
330
A
100
AcDbSymbolTableRecord
100
AcDbDimStyleTableRecord
  2
ME10_DIM_11
 70
     0
 41
6.0
 42
1.0
 44
2.0
 73
     0
 74
     0
 77
     1
 78
     8
140
6.0
147
4.0
172
     1
173
     1
174
     1
175
     1
176
     7
177
     7
271
     2
178
     7
271
     2
340
19F
  0
DIMSTYLE
105
1C2
102
{ACAD_REACTORS
330
1C3
102
}
330
A
100
AcDbSymbolTableRecord
100
AcDbDimStyleTableRecord
  2
ME10_DIM_12
 70
     0
 41
6.0
 42
1.0
 44
2.0
 73
     0
 74
     0
 77
     1
 78
     8
140
6.0
147
4.0
172
     1
173
     1
174
     1
175
     1
176
     7
177
     7
271
     2
178
     7
271
     2
340
19F
  0
DIMSTYLE
105
1CD
102
{ACAD_REACTORS
330
1CE
102
}
330
A
100
AcDbSymbolTableRecord
100
AcDbDimStyleTableRecord
  2
ME10_DIM_13
 70
     0
 41
6.0
 42
1.0
 44
2.0
 73
     0
 74
     0
 77
     1
 78
     8
140
6.0
147
4.0
172
     1
173
     1
174
     1
175
     1
176
     7
177
     7
271
     2
178
     7
271
     2
340
19F
  0
DIMSTYLE
105
1DA
102
{ACAD_REACTORS
330
1DB
102
}
330
A
100
AcDbSymbolTableRecord
100
AcDbDimStyleTableRecord
  2
ME10_DIM_14
 70
     0
 41
6.0
 42
1.0
 44
2.0
 73
     0
 74
     0
 77
     1
 78
     8
140
6.0
147
4.0
172
     1
173
     1
174
     1
175
     1
176
     7
177
     7
271
     2
178
     7
271
     2
340
19F
  0
DIMSTYLE
105
1E5
102
{ACAD_REACTORS
330
1E6
102
}
330
A
100
AcDbSymbolTableRecord
100
AcDbDimStyleTableRecord
  2
ME10_DIM_15
 70
     0
 41
6.0
 42
1.0
 44
2.0
 73
     0
 74
     0
 77
     1
 78
     8
140
6.0
147
4.0
172
     1
173
     1
174
     1
175
     1
176
     7
177
     7
271
     2
178
     7
271
     2
340
19F
  0
ENDTAB
  0
TABLE
  2
BLOCK_RECORD
  5
1
330
0
100
AcDbSymbolTable
 70
    10
  0
BLOCK_RECORD
  5
1F
330
1
100
AcDbSymbolTableRecord
100
AcDbBlockTableRecord
  2
*Model_Space
340
22
  0
BLOCK_RECORD
  5
1B
330
1
100
AcDbSymbolTableRecord
100
AcDbBlockTableRecord
  2
*Paper_Space
340
1E
  0
BLOCK_RECORD
  5
23
330
1
100
AcDbSymbolTableRecord
100
AcDbBlockTableRecord
  2
*Paper_Space0
340
26
  0
BLOCK_RECORD
  5
72
330
1
100
AcDbSymbolTableRecord
100
AcDbBlockTableRecord
  2
_formato_A4
340
0
102
{BLKREFS
331
76
102
}
  0
BLOCK_RECORD
  5
75
330
1
100
AcDbSymbolTableRecord
100
AcDbBlockTableRecord
  2
A4
340
0
102
{BLKREFS
331
7C
102
}
  0
BLOCK_RECORD
  5
79
330
1
100
AcDbSymbolTableRecord
100
AcDbBlockTableRecord
  2
_dummy_frame
340
0
102
{BLKREFS
331
7D
102
}
  0
BLOCK_RECORD
  5
1A1
330
1
100
AcDbSymbolTableRecord
100
AcDbBlockTableRecord
  2
*D4
340
0
  0
BLOCK_RECORD
  5
1AE
330
1
100
AcDbSymbolTableRecord
100
AcDbBlockTableRecord
  2
*D5
340
0
  0
BLOCK_RECORD
  5
1B9
330
1
100
AcDbSymbolTableRecord
100
AcDbBlockTableRecord
  2
*D6
340
0
  0
BLOCK_RECORD
  5
1C4
330
1
100
AcDbSymbolTableRecord
100
AcDbBlockTableRecord
  2
*D7
340
0
  0
BLOCK_RECORD
  5
1CF
330
1
100
AcDbSymbolTableRecord
100
AcDbBlockTableRecord
  2
*D8
340
0
  0
BLOCK_RECORD
  5
1DC
330
1
100
AcDbSymbolTableRecord
100
AcDbBlockTableRecord
  2
*D9
340
0
  0
ENDTAB
  0
ENDSEC
  0
SECTION
  2
BLOCKS
  0
BLOCK
  5
20
330
1F
100
AcDbEntity
  8
0
100
AcDbBlockBegin
  2
*Model_Space
 70
     0
 10
0.0
 20
0.0
 30
0.0
  3
*Model_Space
  1
*Model_Space
  0
ENDBLK
  5
21
330
1F
100
AcDbEntity
  8
0
100
AcDbBlockEnd
  0
BLOCK
  5
1C
330
1B
100
AcDbEntity
 67
     1
  8
0
100
AcDbBlockBegin
  2
*Paper_Space
 70
     0
 10
0.0
 20
0.0
 30
0.0
  3
*Paper_Space
  1
*Paper_Space
  0
ENDBLK
  5
1D
330
1B
100
AcDbEntity
 67
     1
  8
0
100
AcDbBlockEnd
  0
BLOCK
  5
24
330
23
100
AcDbEntity
  8
0
100
AcDbBlockBegin
  2
*Paper_Space0
 70
     0
 10
0.0
 20
0.0
 30
0.0
  3
*Paper_Space0
  1
*Paper_Space0
  0
ENDBLK
  5
25
330
23
100
AcDbEntity
  8
0
100
AcDbBlockEnd
  0
BLOCK
  5
73
330
72
100
AcDbEntity
  8
0
100
AcDbBlockBegin
  2
_formato_A4
 70
     0
 10
480.6788565328411
 20
-655.5834282693753
 30
0.0
  3
_formato_A4
  1
_formato_A4
  0
LINE
  5
7E
330
72
100
AcDbEntity
  8
1
  6
Continuous
 62
     7
100
AcDbLine
 10
291.6788565328411
 20
-635.5834282693753
 30
0.0
 11
475.6788565328411
 21
-635.5834282693753
 31
0.0
  0
LINE
  5
7F
330
72
100
AcDbEntity
  8
1
  6
Continuous
 62
     7
100
AcDbLine
 10
291.6788565328411
 20
-650.5834282693754
 30
0.0
 11
475.6788565328411
 21
-650.5834282693754
 31
0.0
  0
LINE
  5
80
330
72
100
AcDbEntity
  8
1
  6
Continuous
 62
     7
100
AcDbLine
 10
316.6788565328412
 20
-620.5834282693753
 30
0.0
 11
316.6788565328412
 21
-615.5834282693753
 31
0.0
  0
LINE
  5
81
330
72
100
AcDbEntity
  8
1
  6
Continuous
 62
     7
100
AcDbLine
 10
298.6788565328411
 20
-620.5834282693753
 30
0.0
 11
298.6788565328411
 21
-615.5834282693753
 31
0.0
  0
LINE
  5
82
330
72
100
AcDbEntity
  8
1
  6
Continuous
 62
     7
100
AcDbLine
 10
291.6788565328411
 20
-615.5834282693753
 30
0.0
 11
475.6788565328411
 21
-615.5834282693753
 31
0.0
  0
LINE
  5
83
330
72
100
AcDbEntity
  8
1
  6
Continuous
 62
     7
100
AcDbLine
 10
316.6788565328412
 20
-625.5834282693753
 30
0.0
 11
316.6788565328412
 21
-620.5834282693753
 31
0.0
  0
LINE
  5
84
330
72
100
AcDbEntity
  8
1
  6
Continuous
 62
     7
100
AcDbLine
 10
298.6788565328411
 20
-625.5834282693753
 30
0.0
 11
298.6788565328411
 21
-620.5834282693753
 31
0.0
  0
LINE
  5
85
330
72
100
AcDbEntity
  8
1
  6
Continuous
 62
     7
100
AcDbLine
 10
291.6788565328411
 20
-620.5834282693753
 30
0.0
 11
475.6788565328411
 21
-620.5834282693753
 31
0.0
  0
LINE
  5
86
330
72
100
AcDbEntity
  8
1
  6
Continuous
 62
     7
100
AcDbLine
 10
316.6788565328412
 20
-630.5834282693753
 30
0.0
 11
316.6788565328412
 21
-625.5834282693753
 31
0.0
  0
LINE
  5
87
330
72
100
AcDbEntity
  8
1
  6
Continuous
 62
     7
100
AcDbLine
 10
298.6788565328411
 20
-630.5834282693753
 30
0.0
 11
298.6788565328411
 21
-625.5834282693753
 31
0.0
  0
LINE
  5
88
330
72
100
AcDbEntity
  8
1
  6
Continuous
 62
     7
100
AcDbLine
 10
291.6788565328411
 20
-625.5834282693753
 30
0.0
 11
475.6788565328411
 21
-625.5834282693753
 31
0.0
  0
LINE
  5
89
330
72
100
AcDbEntity
  8
1
  6
Continuous
 62
     7
100
AcDbLine
 10
316.6788565328412
 20
-635.5834282693753
 30
0.0
 11
316.6788565328412
 21
-630.5834282693753
 31
0.0
  0
LINE
  5
8A
330
72
100
AcDbEntity
  8
1
  6
Continuous
 62
     7
100
AcDbLine
 10
298.6788565328411
 20
-635.5834282693753
 30
0.0
 11
298.6788565328411
 21
-630.5834282693753
 31
0.0
  0
LINE
  5
8B
330
72
100
AcDbEntity
  8
1
  6
Continuous
 62
     7
100
AcDbLine
 10
291.6788565328411
 20
-630.5834282693753
 30
0.0
 11
475.6788565328411
 21
-630.5834282693753
 31
0.0
  0
LINE
  5
8C
102
{ACAD_REACTORS
330
D5
102
}
330
72
100
AcDbEntity
  8
1
  6
Continuous
 62
     7
100
AcDbLine
 10
466.5217313727469
 20
-645.025426188995
 30
0.0
 11
465.1883980394136
 21
-645.7946569582256
 31
0.0
  0
LINE
  5
8D
102
{ACAD_REACTORS
330
D5
102
}
330
72
100
AcDbEntity
  8
1
  6
Continuous
 62
     7
100
AcDbLine
 10
465.3551572215838
 20
-644.9287917367274
 30
0.0
 11
466.1885830704206
 21
-644.4479691316291
 31
0.0
  0
LINE
  5
8E
102
{ACAD_REACTORS
330
D5
102
}
330
72
100
AcDbEntity
  8
1
  6
Continuous
 62
     7
100
AcDbLine
 10
465.3551572215838
 20
-643.4167616027087
 30
0.0
 11
465.3551572215838
 21
-644.9287917367274
 31
0.0
  0
LINE
  5
8F
102
{ACAD_REACTORS
330
D5
102
}
330
72
100
AcDbEntity
  8
1
  6
Continuous
 62
     7
100
AcDbLine
 10
466.3551572215838
 20
-643.4167616027087
 30
0.0
 11
465.3551572215838
 21
-643.4167616027087
 31
0.0
  0
LINE
  5
90
102
{ACAD_REACTORS
330
D5
102
}
330
72
100
AcDbEntity
  8
1
  6
Continuous
 62
     7
100
AcDbLine
 10
465.3551572215838
 20
-642.750094936042
 30
0.0
 11
466.3551572215838
 21
-642.750094936042
 31
0.0
  0
LINE
  5
91
102
{ACAD_REACTORS
330
D5
102
}
330
72
100
AcDbEntity
  8
1
  6
Continuous
 62
     7
100
AcDbLine
 10
465.3551572215838
 20
-641.2380648020234
 30
0.0
 11
465.3551572215838
 21
-642.750094936042
 31
0.0
  0
LINE
  5
92
102
{ACAD_REACTORS
330
D5
102
}
330
72
100
AcDbEntity
  8
1
  6
Continuous
 62
     7
100
AcDbLine
 10
466.1885830704206
 20
-641.7188874071215
 30
0.0
 11
465.3551572215838
 21
-641.2380648020234
 31
0.0
  0
LINE
  5
93
102
{ACAD_REACTORS
330
D5
102
}
330
72
100
AcDbEntity
  8
1
  6
Continuous
 62
     7
100
AcDbLine
 10
465.1883980394136
 20
-640.372199580525
 30
0.0
 11
466.5217313727469
 21
-641.1414303497559
 31
0.0
  0
LINE
  5
94
102
{ACAD_REACTORS
330
D6
102
}
330
72
100
AcDbEntity
  8
1
  6
Continuous
 62
     7
100
AcDbLine
 10
458.0218238882504
 20
-644.7366976603121
 30
0.0
 11
458.0218238882504
 21
-641.4301588784386
 31
0.0
  0
LINE
  5
95
102
{ACAD_REACTORS
330
D6
102
}
330
72
100
AcDbEntity
  8
1
  6
Continuous
 62
     7
100
AcDbLine
 10
458.6884905549171
 20
-644.544176352112
 30
0.0
 11
458.6884905549171
 21
-644.7366976603121
 31
0.0
  0
LINE
  5
96
102
{ACAD_REACTORS
330
D6
102
}
330
72
100
AcDbEntity
  8
1
  6
Continuous
 62
     7
100
AcDbLine
 10
458.6884905549171
 20
-641.4301588784386
 30
0.0
 11
458.6884905549171
 21
-644.544176352112
 31
0.0
  0
LINE
  5
97
102
{ACAD_REACTORS
330
D7
102
}
330
72
100
AcDbEntity
  8
1
  6
Continuous
 62
     7
100
AcDbLine
 10
461.8552497370873
 20
-647.1408108043795
 30
0.0
 11
459.6886755859241
 21
-645.8908641787084
 31
0.0
  0
LINE
  5
98
102
{ACAD_REACTORS
330
D7
102
}
330
72
100
AcDbEntity
  8
1
  6
Continuous
 62
     7
100
AcDbLine
 10
460.0218238882504
 20
-645.3134071213426
 30
0.0
 11
462.1883980394136
 21
-646.5633537470137
 31
0.0
  0
LINE
  5
99
102
{ACAD_REACTORS
330
D7
102
}
330
72
100
AcDbEntity
  8
1
  6
Continuous
 62
     7
100
AcDbLine
 10
460.0218238882504
 20
-640.6609281092079
 30
0.0
 11
460.0218238882504
 21
-645.3134071213426
 31
0.0
  0
LINE
  5
9A
102
{ACAD_REACTORS
330
D7
102
}
330
72
100
AcDbEntity
  8
1
  6
Continuous
 62
     7
100
AcDbLine
 10
459.3551572215838
 20
-645.3134071213427
 30
0.0
 11
459.3551572215838
 21
-640.6609281092079
 31
0.0
  0
LINE
  5
9B
102
{ACAD_REACTORS
330
D8
102
}
330
72
100
AcDbEntity
  8
1
  6
Continuous
 62
     7
100
AcDbLine
 10
463.5273902046271
 20
-639.719727851103
 30
0.0
 11
462.3551572215838
 21
-641.750094936042
 31
0.0
  0
LINE
  5
9C
102
{ACAD_REACTORS
330
D8
102
}
330
72
100
AcDbEntity
  8
1
  6
Continuous
 62
     7
100
AcDbLine
 10
464.0218238882504
 20
-646.2751591987735
 30
0.0
 11
464.0218238882504
 21
-639.8522109573407
 31
0.0
  0
LINE
  5
9D
102
{ACAD_REACTORS
330
D8
102
}
330
72
100
AcDbEntity
  8
1
  6
Continuous
 62
     7
100
AcDbLine
 10
463.3551572215838
 20
-643.0834282693753
 30
0.0
 11
463.3551572215838
 21
-646.2751591987735
 31
0.0
  0
LINE
  5
9E
102
{ACAD_REACTORS
330
D8
102
}
330
72
100
AcDbEntity
  8
1
  6
Continuous
 62
     7
100
AcDbLine
 10
461.3551572215838
 20
-644.7358431967424
 30
0.0
 11
461.3551572215838
 21
-643.0834282693753
 31
0.0
  0
LINE
  5
9F
102
{ACAD_REACTORS
330
D8
102
}
330
72
100
AcDbEntity
  8
1
  6
Continuous
 62
     7
100
AcDbLine
 10
460.6884905549171
 20
-643.0834282693753
 30
0.0
 11
460.6884905549171
 21
-644.7358431967424
 31
0.0
  0
LINE
  5
A0
102
{ACAD_REACTORS
330
D8
102
}
330
72
100
AcDbEntity
  8
1
  6
Continuous
 62
     7
100
AcDbLine
 10
461.1829242385405
 20
-639.719727851103
 30
0.0
 11
462.3551572215838
 21
-641.750094936042
 31
0.0
  0
LINE
  5
A1
102
{ACAD_REACTORS
330
D8
102
}
330
72
100
AcDbEntity
  8
1
  6
Continuous
 62
     7
100
AcDbLine
 10
460.6884905549171
 20
-643.0834282693753
 30
0.0
 11
460.6884905549171
 21
-639.8522109573407
 31
0.0
  0
LINE
  5
A2
330
72
100
AcDbEntity
  8
1
  6
Continuous
 62
     7
100
AcDbLine
 10
462.3551572215838
 20
-648.0834282693753
 30
0.0
 11
453.9387219464422
 21
-643.2277925337168
 31
0.0
  0
LINE
  5
A3
330
72
100
AcDbEntity
  8
1
  6
Continuous
 62
     7
100
AcDbLine
 10
470.7715924967253
 20
-643.2277925337168
 30
0.0
 11
462.3551572215838
 21
-648.0834282693753
 31
0.0
  0
LINE
  5
A4
330
72
100
AcDbEntity
  8
1
  6
Continuous
 62
     7
100
AcDbLine
 10
462.3551572215838
 20
-638.0834282693753
 30
0.0
 11
470.7715924967253
 21
-642.939064005034
 31
0.0
  0
LINE
  5
A5
330
72
100
AcDbEntity
  8
1
  6
Continuous
 62
     7
100
AcDbLine
 10
453.9387219464422
 20
-642.939064005034
 30
0.0
 11
462.3551572215838
 21
-638.0834282693753
 31
0.0
  0
LINE
  5
A6
102
{ACAD_REACTORS
330
D8
102
}
330
72
100
AcDbEntity
  8
1
  6
Continuous
 62
     7
100
AcDbLine
 10
461.3551572215838
 20
-641.3513774618065
 30
0.0
 11
461.3551572215838
 21
-643.0834282693753
 31
0.0
  0
LINE
  5
A7
102
{ACAD_REACTORS
330
D8
102
}
330
72
100
AcDbEntity
  8
1
  6
Continuous
 62
     7
100
AcDbLine
 10
462.2108196542864
 20
-642.8334282693753
 30
0.0
 11
461.3551572215838
 21
-641.3513774618065
 31
0.0
  0
LINE
  5
A8
102
{ACAD_REACTORS
330
D8
102
}
330
72
100
AcDbEntity
  8
1
  6
Continuous
 62
     7
100
AcDbLine
 10
463.3551572215838
 20
-641.3513774618065
 30
0.0
 11
462.4994947888812
 21
-642.8334282693753
 31
0.0
  0
LINE
  5
A9
102
{ACAD_REACTORS
330
D8
102
}
330
72
100
AcDbEntity
  8
1
  6
Continuous
 62
     7
100
AcDbLine
 10
463.3551572215838
 20
-643.0834282693753
 30
0.0
 11
463.3551572215838
 21
-641.3513774618065
 31
0.0
  0
LINE
  5
AA
102
{ACAD_REACTORS
330
D5
102
}
330
72
100
AcDbEntity
  8
1
  6
Continuous
 62
     7
100
AcDbLine
 10
464.6884905549172
 20
-645.5059284295427
 30
0.0
 11
464.6884905549172
 21
-640.6609281092079
 31
0.0
  0
LINE
  5
AB
330
72
100
AcDbEntity
  8
1
  6
Continuous
 62
     7
100
AcDbLine
 10
291.6788565328411
 20
-363.5834282693752
 30
0.0
 11
291.6788565328411
 21
-650.5834282693754
 31
0.0
  0
LINE
  5
AC
330
72
100
AcDbEntity
  8
1
  6
Continuous
 62
     7
100
AcDbLine
 10
475.6788565328411
 20
-363.5834282693752
 30
0.0
 11
291.6788565328411
 21
-363.5834282693752
 31
0.0
  0
LINE
  5
AD
330
72
100
AcDbEntity
  8
1
  6
Continuous
 62
     7
100
AcDbLine
 10
475.6788565328411
 20
-650.5834282693754
 30
0.0
 11
475.6788565328411
 21
-363.5834282693752
 31
0.0
  0
LINE
  5
AE
330
72
100
AcDbEntity
  8
1
  6
Continuous
 62
     7
100
AcDbLine
 10
480.6788565328411
 20
-358.5834282693752
 30
0.0
 11
270.678856532841
 21
-358.5834282693752
 31
0.0
  0
LINE
  5
AF
330
72
100
AcDbEntity
  8
1
  6
Continuous
 62
     7
100
AcDbLine
 10
270.678856532841
 20
-358.5834282693752
 30
0.0
 11
270.678856532841
 21
-655.5834282693753
 31
0.0
  0
LINE
  5
B0
330
72
100
AcDbEntity
  8
1
  6
Continuous
 62
     7
100
AcDbLine
 10
270.678856532841
 20
-655.5834282693753
 30
0.0
 11
480.6788565328411
 21
-655.5834282693753
 31
0.0
  0
LINE
  5
B1
330
72
100
AcDbEntity
  8
1
  6
Continuous
 62
     7
100
AcDbLine
 10
480.6788565328411
 20
-655.5834282693753
 30
0.0
 11
480.6788565328411
 21
-358.5834282693752
 31
0.0
  0
LINE
  5
B2
330
72
100
AcDbEntity
  8
1
  6
Continuous
 62
     7
100
AcDbLine
 10
270.678856532841
 20
-507.0834282693755
 30
0.0
 11
285.678856532841
 21
-507.0834282693755
 31
0.0
  0
LINE
  5
B3
330
72
100
AcDbEntity
  8
1
  6
Continuous
 62
     7
100
AcDbLine
 10
291.6788565328411
 20
-645.5834282693754
 30
0.0
 11
321.6788565328411
 21
-645.5834282693754
 31
0.0
  0
LINE
  5
B4
330
72
100
AcDbEntity
  8
1
  6
Continuous
 62
     7
100
AcDbLine
 10
321.6788565328411
 20
-635.5834282693753
 30
0.0
 11
321.6788565328411
 21
-650.5834282693753
 31
0.0
  0
LINE
  5
B5
330
72
100
AcDbEntity
  8
1
  6
Continuous
 62
     7
100
AcDbLine
 10
449.0314579103265
 20
-635.5834282693753
 30
0.0
 11
449.0314579103265
 21
-650.5834282693753
 31
0.0
  0
LINE
  5
B6
330
72
100
AcDbEntity
  8
1
  6
Continuous
 62
     7
100
AcDbLine
 10
431.6788565328411
 20
-635.5834282693753
 30
0.0
 11
431.6788565328411
 21
-650.5834282693753
 31
0.0
  0
LINE
  5
B7
330
72
100
AcDbEntity
  8
1
  6
Continuous
 62
     7
100
AcDbLine
 10
291.6788565328411
 20
-635.5834282693753
 30
0.0
 11
291.6788565328411
 21
-650.5834282693754
 31
0.0
  0
LINE
  5
B8
330
72
100
AcDbEntity
  8
1
  6
Continuous
 62
     7
100
AcDbLine
 10
291.6788565328411
 20
-640.5834282693754
 30
0.0
 11
321.6788565328411
 21
-640.5834282693754
 31
0.0
  0
ARC
  5
B9
102
{ACAD_REACTORS
330
D5
102
}
330
72
100
AcDbEntity
  8
1
  6
Continuous
 62
     7
100
AcDbCircle
 10
466.3551572215838
 20
-644.7366976603121
 30
0.0
 40
0.3333333333333141
100
AcDbArc
 50
299.9816393688337
 51
119.9816393688409
  0
ARC
  5
BA
102
{ACAD_REACTORS
330
D5
102
}
330
72
100
AcDbEntity
  8
1
  6
Continuous
 62
     7
100
AcDbCircle
 10
466.3551572215838
 20
-643.0834282693753
 30
0.0
 40
0.3333333333333712
100
AcDbArc
 50
270.0
 51
90.0
  0
ARC
  5
BB
102
{ACAD_REACTORS
330
D5
102
}
330
72
100
AcDbEntity
  8
1
  6
Continuous
 62
     7
100
AcDbCircle
 10
466.3551572215838
 20
-641.4301588784386
 30
0.0
 40
0.3333333333333709
100
AcDbArc
 50
240.0183606311493
 51
60.01836063115653
  0
ARC
  5
BC
102
{ACAD_REACTORS
330
D6
102
}
330
72
100
AcDbEntity
  8
1
  6
Continuous
 62
     7
100
AcDbCircle
 10
458.3551572215838
 20
-644.7366976603121
 30
0.0
 40
0.3333333333333712
100
AcDbArc
 50
180.0
 51
0.0
  0
ARC
  5
BD
102
{ACAD_REACTORS
330
D6
102
}
330
72
100
AcDbEntity
  8
1
  6
Continuous
 62
     7
100
AcDbCircle
 10
458.3551572215838
 20
-641.4301588784386
 30
0.0
 40
0.3333333333333144
100
AcDbArc
 50
0.0
 51
180.0
  0
ARC
  5
BE
102
{ACAD_REACTORS
330
D7
102
}
330
72
100
AcDbEntity
  8
1
  6
Continuous
 62
     7
100
AcDbCircle
 10
462.0218238882504
 20
-646.8520822756966
 30
0.0
 40
0.3333333333333141
100
AcDbArc
 50
240.0183606311663
 51
60.01836063115783
  0
ARC
  5
BF
102
{ACAD_REACTORS
330
D7
102
}
330
72
100
AcDbEntity
  8
1
  6
Continuous
 62
     7
100
AcDbCircle
 10
459.6884905549171
 20
-640.6609281092079
 30
0.0
 40
0.3333333333333144
100
AcDbArc
 50
0.0
 51
180.0
  0
ARC
  5
C0
102
{ACAD_REACTORS
330
D8
102
}
330
72
100
AcDbEntity
  8
1
  6
Continuous
 62
     7
100
AcDbCircle
 10
463.7568576757751
 20
-639.8522109573407
 30
0.0
 40
0.2649662124753149
100
AcDbArc
 50
0.0
 51
149.9999999999695
  0
ARC
  5
C1
102
{ACAD_REACTORS
330
D8
102
}
330
72
100
AcDbEntity
  8
1
  6
Continuous
 62
     7
100
AcDbCircle
 10
463.6884905549172
 20
-646.2751591987735
 30
0.0
 40
0.3333333333334281
100
AcDbArc
 50
180.0
 51
0.0
  0
ARC
  5
C2
102
{ACAD_REACTORS
330
D8
102
}
330
72
100
AcDbEntity
  8
1
  6
Continuous
 62
     7
100
AcDbCircle
 10
461.0218238882504
 20
-644.7358431967424
 30
0.0
 40
0.3333333333333144
100
AcDbArc
 50
180.0
 51
0.0
  0
ARC
  5
C3
102
{ACAD_REACTORS
330
D8
102
}
330
72
100
AcDbEntity
  8
1
  6
Continuous
 62
     7
100
AcDbCircle
 10
460.9534567673924
 20
-639.8522109573407
 30
0.0
 40
0.2649662124752827
100
AcDbArc
 50
30.00000000001821
 51
180.0
  0
ARC
  5
C4
102
{ACAD_REACTORS
330
D5
102
}
330
72
100
AcDbEntity
  8
1
  6
Continuous
 62
     7
100
AcDbCircle
 10
465.0218238882504
 20
-645.5059284295427
 30
0.0
 40
0.3333333333332007
100
AcDbArc
 50
180.0
 51
299.9816393688421
  0
ARC
  5
C5
102
{ACAD_REACTORS
330
D5
102
}
330
72
100
AcDbEntity
  8
1
  6
Continuous
 62
     7
100
AcDbCircle
 10
465.0218238882504
 20
-640.6609281092079
 30
0.0
 40
0.3333333333333425
100
AcDbArc
 50
60.01836063115783
 51
180.0
  0
ARC
  5
C6
330
72
100
AcDbEntity
  8
1
  6
Continuous
 62
     7
100
AcDbCircle
 10
470.6883054211437
 20
-643.0834282693753
 30
0.0
 40
0.1666666666666854
100
AcDbArc
 50
299.9816393688506
 51
60.01836063112984
  0
ARC
  5
C7
330
72
100
AcDbEntity
  8
1
  6
Continuous
 62
     7
100
AcDbCircle
 10
454.0220090220239
 20
-643.0834282693753
 30
0.0
 40
0.1666666666666438
100
AcDbArc
 50
119.981639368904
 51
240.0183606311155
  0
ARC
  5
C8
102
{ACAD_REACTORS
330
D7
102
}
330
72
100
AcDbEntity
  8
1
  6
Continuous
 62
     7
100
AcDbCircle
 10
460.0218238882504
 20
-645.3134071213426
 30
0.0
 40
0.6666666666666288
100
AcDbArc
 50
180.0000000000097
 51
240.0183606311578
  0
ARC
  5
C9
102
{ACAD_REACTORS
330
D8
102
}
330
72
100
AcDbEntity
  8
1
  6
Continuous
 62
     7
100
AcDbCircle
 10
462.3551572215838
 20
-642.750094936042
 30
0.0
 40
0.1666666666666096
100
AcDbArc
 50
209.9999999999812
 51
330.0000000000188
  0
MTEXT
  5
CB
330
72
100
AcDbEntity
  8
1
 62
     7
100
AcDbMText
 10
440.3551572215839
 20
-645.5227888486193
 30
0.0
 40
4.5
 41
0.0
 71
     5
 72
     1
  1
1:2
  7
CONVERTER_11
 73
     1
 44
1.32052821128451
  0
MTEXT
  5
CC
330
72
100
AcDbEntity
  8
1
 62
     7
100
AcDbMText
 10
440.3551572215839
 20
-639.3227888486193
 30
0.0
 40
3.0
 41
0.0
 71
     5
 72
     1
  1
Scale
  7
CONVERTER_11
 73
     1
 44
1.32052821128451
  0
MTEXT
  5
CD
330
72
100
AcDbEntity
  8
1
 62
     7
100
AcDbMText
 10
327.9551572215838
 20
-643.0834282693753
 30
0.0
 40
4.5
 41
0.0
 71
     4
 72
     1
  1
APF 14\PMounting plate 14VC
  7
CONVERTER_11
 73
     1
 44
0.90036014405762
  0
MTEXT
  5
CE
330
72
100
AcDbEntity
  8
1
 62
     7
100
AcDbMText
 10
303.2788565328411
 20
-648.0834282693754
 30
0.0
 40
3.0
 41
0.0
 71
     4
 72
     1
  1
D. Bonino
  7
CONVERTER_11
 73
     1
 44
1.32052821128451
  0
MTEXT
  5
CF
330
72
100
AcDbEntity
  8
1
 62
     7
100
AcDbMText
 10
292.6788565328411
 20
-648.0834282693754
 30
0.0
 40
3.0
 41
0.0
 71
     4
 72
     1
  1
Sign.
  7
CONVERTER_11
 73
     1
 44
1.32052821128451
  0
MTEXT
  5
D0
330
72
100
AcDbEntity
  8
1
 62
     7
100
AcDbMText
 10
303.2788565328411
 20
-643.0834282693754
 30
0.0
 40
3.0
 41
0.0
 71
     4
 72
     1
  1
05/05/16
  7
CONVERTER_11
 73
     1
 44
1.32052821128451
  0
MTEXT
  5
D1
330
72
100
AcDbEntity
  8
1
 62
     7
100
AcDbMText
 10
292.6788565328411
 20
-643.0834282693754
 30
0.0
 40
3.0
 41
0.0
 71
     4
 72
     1
  1
Date
  7
CONVERTER_11
 73
     1
 44
1.32052821128451
  0
MTEXT
  5
D2
330
72
100
AcDbEntity
  8
1
 62
     7
100
AcDbMText
 10
286.678856532841
 20
-504.0834282693755
 30
0.0
 40
4.0
 41
0.0
 71
     5
 72
     1
  1
Diritti riservati      All rights reserved
  7
CONVERTER_11
 11
0.0
 21
1.0
 31
0.0
 73
     1
 44
1.32052821128451
  0
MTEXT
  5
D4
330
72
100
AcDbEntity
  8
1
 62
     7
100
AcDbMText
 10
306.6788565328411
 20
-638.0834282693754
 30
0.0
 40
2.5
 41
0.0
 71
     5
 72
     1
  1
dimensions in mm
  7
CONVERTER_12
 73
     1
 44
0.60024009603842
  0
HATCH
  5
D5
330
72
100
AcDbEntity
  8
1
  6
Continuous
 62
     7
100
AcDbHatch
 10
0.0
 20
0.0
 30
0.0
210
0.0
220
0.0
230
1.0
  2
SOLID
 70
     1
 71
     1
 91
        1
 92
        1
 93
       14
 72
     2
 10
465.0218238882504
 20
-640.6609281092079
 40
0.3333333333333425
 50
60.01836063115783
 51
180.0
 73
     1
 72
     1
 10
464.6884905549172
 20
-640.6609281092079
 11
464.6884905549172
 21
-645.5059284295427
 72
     2
 10
465.0218238882504
 20
-645.5059284295427
 40
0.3333333333332007
 50
180.0
 51
299.9816393688421
 73
     1
 72
     1
 10
465.1883980394136
 20
-645.7946569582256
 11
466.5217313727469
 21
-645.025426188995
 72
     2
 10
466.3551572215838
 20
-644.7366976603121
 40
0.3333333333333141
 50
299.9816393688337
 51
479.9816393688409
 73
     1
 72
     1
 10
466.1885830704206
 20
-644.4479691316291
 11
465.3551572215838
 21
-644.9287917367274
 72
     1
 10
465.3551572215838
 20
-644.9287917367274
 11
465.3551572215838
 21
-643.4167616027087
 72
     1
 10
465.3551572215838
 20
-643.4167616027087
 11
466.3551572215838
 21
-643.4167616027087
 72
     2
 10
466.3551572215838
 20
-643.0834282693753
 40
0.3333333333333712
 50
270.0
 51
450.0
 73
     1
 72
     1
 10
466.3551572215838
 20
-642.750094936042
 11
465.3551572215838
 21
-642.750094936042
 72
     1
 10
465.3551572215838
 20
-642.750094936042
 11
465.3551572215838
 21
-641.2380648020234
 72
     1
 10
465.3551572215838
 20
-641.2380648020234
 11
466.1885830704206
 21
-641.7188874071215
 72
     2
 10
466.3551572215838
 20
-641.4301588784386
 40
0.3333333333333709
 50
240.0183606311493
 51
420.0183606311565
 73
     1
 72
     1
 10
466.5217313727469
 20
-641.1414303497559
 11
465.1883980394136
 21
-640.372199580525
 97
       14
330
BB
330
92
330
91
330
90
330
BA
330
8F
330
8E
330
8D
330
B9
330
8C
330
C4
330
AA
330
C5
330
93
 75
     0
 76
     1
 98
        1
 10
0.0
 20
0.0
  0
HATCH
  5
D6
330
72
100
AcDbEntity
  8
1
  6
Continuous
 62
     7
100
AcDbHatch
 10
0.0
 20
0.0
 30
0.0
210
0.0
220
0.0
230
1.0
  2
SOLID
 70
     1
 71
     1
 91
        1
 92
        1
 93
        5
 72
     2
 10
458.3551572215838
 20
-641.4301588784386
 40
0.3333333333333144
 50
0.0
 51
180.0
 73
     1
 72
     1
 10
458.0218238882504
 20
-641.4301588784386
 11
458.0218238882504
 21
-644.7366976603121
 72
     2
 10
458.3551572215838
 20
-644.7366976603121
 40
0.3333333333333712
 50
180.0
 51
360.0
 73
     1
 72
     1
 10
458.6884905549171
 20
-644.7366976603121
 11
458.6884905549171
 21
-644.544176352112
 72
     1
 10
458.6884905549171
 20
-644.544176352112
 11
458.6884905549171
 21
-641.4301588784386
 97
        5
330
BD
330
94
330
BC
330
95
330
96
 75
     0
 76
     1
 98
        1
 10
0.0
 20
0.0
  0
HATCH
  5
D7
330
72
100
AcDbEntity
  8
1
  6
Continuous
 62
     7
100
AcDbHatch
 10
0.0
 20
0.0
 30
0.0
210
0.0
220
0.0
230
1.0
  2
SOLID
 70
     1
 71
     1
 91
        1
 92
        1
 93
        7
 72
     2
 10
459.6884905549171
 20
-640.6609281092079
 40
0.3333333333333144
 50
0.0
 51
180.0
 73
     1
 72
     1
 10
459.3551572215838
 20
-640.6609281092079
 11
459.3551572215838
 21
-645.3134071213427
 72
     2
 10
460.0218238882504
 20
-645.3134071213426
 40
0.6666666666666288
 50
180.0000000000097
 51
240.0183606311578
 73
     1
 72
     1
 10
459.6886755859241
 20
-645.8908641787084
 11
461.8552497370873
 21
-647.1408108043795
 72
     2
 10
462.0218238882504
 20
-646.8520822756966
 40
0.3333333333333141
 50
240.0183606311663
 51
420.0183606311578
 73
     1
 72
     1
 10
462.1883980394136
 20
-646.5633537470137
 11
460.0218238882504
 21
-645.3134071213426
 72
     1
 10
460.0218238882504
 20
-645.3134071213426
 11
460.0218238882504
 21
-640.6609281092079
 97
        7
330
BF
330
9A
330
C8
330
97
330
BE
330
98
330
99
 75
     0
 76
     1
 98
        1
 10
0.0
 20
0.0
  0
HATCH
  5
D8
330
72
100
AcDbEntity
  8
1
  6
Continuous
 62
     7
100
AcDbHatch
 10
0.0
 20
0.0
 30
0.0
210
0.0
220
0.0
230
1.0
  2
SOLID
 70
     1
 71
     1
 91
        1
 92
        1
 93
       16
 72
     2
 10
463.7568576757751
 20
-639.8522109573407
 40
0.2649662124753149
 50
210.0000000000305
 51
360.0
 73
     0
 72
     1
 10
464.0218238882504
 20
-639.8522109573407
 11
464.0218238882504
 21
-646.2751591987735
 72
     2
 10
463.6884905549172
 20
-646.2751591987735
 40
0.3333333333334281
 50
0.0
 51
180.0
 73
     0
 72
     1
 10
463.3551572215838
 20
-646.2751591987735
 11
463.3551572215838
 21
-643.0834282693753
 72
     1
 10
463.3551572215838
 20
-643.0834282693753
 11
463.3551572215838
 21
-641.3513774618065
 72
     1
 10
463.3551572215838
 20
-641.3513774618065
 11
462.4994947888812
 21
-642.8334282693753
 72
     2
 10
462.3551572215838
 20
-642.750094936042
 40
0.1666666666666096
 50
29.99999999998124
 51
150.0000000000188
 73
     0
 72
     1
 10
462.2108196542864
 20
-642.8334282693753
 11
461.3551572215838
 21
-641.3513774618065
 72
     1
 10
461.3551572215838
 20
-641.3513774618065
 11
461.3551572215838
 21
-643.0834282693753
 72
     1
 10
461.3551572215838
 20
-643.0834282693753
 11
461.3551572215838
 21
-644.7358431967424
 72
     2
 10
461.0218238882504
 20
-644.7358431967424
 40
0.3333333333333144
 50
0.0
 51
180.0
 73
     0
 72
     1
 10
460.6884905549171
 20
-644.7358431967424
 11
460.6884905549171
 21
-643.0834282693753
 72
     1
 10
460.6884905549171
 20
-643.0834282693753
 11
460.6884905549171
 21
-639.8522109573407
 72
     2
 10
460.9534567673924
 20
-639.8522109573407
 40
0.2649662124752827
 50
180.0
 51
329.9999999999818
 73
     0
 72
     1
 10
461.1829242385405
 20
-639.719727851103
 11
462.3551572215838
 21
-641.750094936042
 72
     1
 10
462.3551572215838
 20
-641.750094936042
 11
463.5273902046271
 21
-639.719727851103
 97
       16
330
A0
330
C3
330
A1
330
9F
330
C2
330
9E
330
A6
330
A7
330
C9
330
A8
330
A9
330
9D
330
C1
330
9C
330
C0
330
9B
 75
     0
 76
     1
 98
        1
 10
0.0
 20
0.0
  0
ENDBLK
  5
74
330
72
100
AcDbEntity
  8
0
100
AcDbBlockEnd
  0
BLOCK
  5
77
330
75
100
AcDbEntity
  8
0
100
AcDbBlockBegin
  2
A4
 70
     0
 10
0.0
 20
0.0
 30
0.0
  3
A4
  1
A4
  0
INSERT
  5
76
330
75
100
AcDbEntity
  8
1
100
AcDbBlockReference
  2
_formato_A4
 10
0.0
 20
0.0
 30
0.0
 41
2.0
 42
2.0
 43
2.0
  0
ENDBLK
  5
78
330
75
100
AcDbEntity
  8
0
100
AcDbBlockEnd
  0
BLOCK
  5
7A
330
79
100
AcDbEntity
  8
0
100
AcDbBlockBegin
  2
_dummy_frame
 70
     0
 10
137.4775998324
 20
306.249716874292
 30
0.0
  3
_dummy_frame
  1
_dummy_frame
  0
POINT
  5
D9
330
79
100
AcDbEntity
  8
1
 62
     7
 60
     1
100
AcDbPoint
 10
137.4775998324
 20
306.249716874292
 30
0.0
  0
ENDBLK
  5
7B
330
79
100
AcDbEntity
  8
0
100
AcDbBlockEnd
  0
BLOCK
  5
1AA
330
1A1
100
AcDbEntity
  8
0
100
AcDbBlockBegin
  2
*D4
 70
     1
 10
0.0
 20
0.0
 30
0.0
  3
*D4
  1
*D4
  0
LINE
  5
1A2
330
1A1
100
AcDbEntity
  8
1
  6
Continuous
 62
     7
100
AcDbLine
 10
-313.0511453660611
 20
358.233125881401
 30
0.0
 11
-304.5658639918224
 21
366.7184072556394
 31
0.0
  0
LINE
  5
1A3
330
1A1
100
AcDbEntity
  8
1
  6
Continuous
 62
     7
100
AcDbLine
 10
-316.2331258814006
 20
355.0511453660616
 30
0.0
 11
-313.0511453660611
 21
358.233125881401
 31
0.0
  0
LINE
  5
1A4
330
1A1
100
AcDbEntity
  8
1
  6
Continuous
 62
     7
100
AcDbLine
 10
-324.7184072556393
 20
346.5658639918232
 30
0.0
 11
-316.2331258814006
 21
355.0511453660616
 31
0.0
  0
LINE
  5
1A5
330
1A1
100
AcDbEntity
  8
1
  6
Continuous
 62
     7
100
AcDbLine
 10
-295.9546523902505
 20
341.1366329055901
 30
0.0
 11
-314.4653589284342
 21
359.6473394437741
 31
0.0
  0
LINE
  5
1A6
330
1A1
100
AcDbEntity
  8
1
  6
Continuous
 62
     7
100
AcDbLine
 10
-299.13663290559
 20
337.9546523902507
 30
0.0
 11
-317.6473394437737
 21
356.4653589284347
 31
0.0
  0
SOLID
  5
1A7
330
1A1
100
AcDbEntity
  8
1
 62
     7
100
AcDbTrace
 10
-319.9172123256947
 20
350.2499504361172
 30
0.0
 11
-321.0343208113451
 21
351.3670589217675
 31
0.0
 12
-316.2331258814006
 22
355.0511453660616
 32
0.0
 13
-316.2331258814006
 23
355.0511453660616
 33
0.0
  0
SOLID
  5
1A8
330
1A1
100
AcDbEntity
  8
1
 62
     7
100
AcDbTrace
 10
-309.367058921767
 20
363.0343208113455
 30
0.0
 11
-308.2499504361166
 21
361.9172123256951
 31
0.0
 12
-313.0511453660611
 22
358.233125881401
 32
0.0
 13
-313.0511453660611
 23
358.233125881401
 33
0.0
  0
MTEXT
  5
1A9
330
1A1
100
AcDbEntity
  8
1
 62
     7
100
AcDbMText
 10
-321.8192694527742
 20
355.9703841816043
 30
0.0
 40
6.0
 41
0.0
 71
     7
 72
     1
  1
4,5
  7
CONVERTER_13
 11
0.7071067811865595
 21
0.7071067811865357
 31
0.0
 73
     1
 44
0.60024009603842
  0
ENDBLK
  5
1AB
330
1A1
100
AcDbEntity
  8
0
100
AcDbBlockEnd
  0
BLOCK
  5
1B5
330
1AE
100
AcDbEntity
  8
0
100
AcDbBlockBegin
  2
*D5
 70
     1
 10
0.0
 20
0.0
 30
0.0
  3
*D5
  1
*D5
  0
LINE
  5
1AF
330
1AE
100
AcDbEntity
  8
1
  6
Continuous
 62
     7
100
AcDbLine
 10
-320.5000000000001
 20
336.5
 30
0.0
 11
-320.5000000000001
 21
183.5000000000001
 31
0.0
  0
LINE
  5
1B0
330
1AE
100
AcDbEntity
  8
1
  6
Continuous
 62
     7
100
AcDbLine
 10
-301.9
 20
183.5000000000001
 30
0.0
 11
-322.5000000000001
 21
183.5000000000001
 31
0.0
  0
LINE
  5
1B1
330
1AE
100
AcDbEntity
  8
1
  6
Continuous
 62
     7
100
AcDbLine
 10
-301.9000000000001
 20
336.5
 30
0.0
 11
-322.5000000000001
 21
336.5
 31
0.0
  0
SOLID
  5
1B2
330
1AE
100
AcDbEntity
  8
1
 62
     7
100
AcDbTrace
 10
-319.7100850144757
 20
330.5
 30
0.0
 11
-321.2899149855245
 21
330.5
 31
0.0
 12
-320.5000000000001
 22
336.5
 32
0.0
 13
-320.5000000000001
 23
336.5
 33
0.0
  0
SOLID
  5
1B3
330
1AE
100
AcDbEntity
  8
1
 62
     7
100
AcDbTrace
 10
-321.2899149855245
 20
189.5000000000001
 30
0.0
 11
-319.7100850144757
 21
189.5000000000001
 31
0.0
 12
-320.5000000000001
 22
183.5000000000001
 32
0.0
 13
-320.5000000000001
 23
183.5000000000001
 33
0.0
  0
MTEXT
  5
1B4
330
1AE
100
AcDbEntity
  8
1
 62
     7
100
AcDbMText
 10
-324.5000000000001
 20
253.7000000000001
 30
0.0
 40
6.0
 41
0.0
 71
     7
 72
     1
  1
153
  7
CONVERTER_13
 11
0.0
 21
1.0
 31
0.0
 73
     1
 44
0.60024009603842
  0
ENDBLK
  5
1B6
330
1AE
100
AcDbEntity
  8
0
100
AcDbBlockEnd
  0
BLOCK
  5
1C0
330
1B9
100
AcDbEntity
  8
0
100
AcDbBlockBegin
  2
*D6
 70
     1
 10
0.0
 20
0.0
 30
0.0
  3
*D6
  1
*D6
  0
LINE
  5
1BA
330
1B9
100
AcDbEntity
  8
1
  6
Continuous
 62
     7
100
AcDbLine
 10
-294.5000000000001
 20
362.5
 30
0.0
 11
-181.4999999999999
 21
362.5
 31
0.0
  0
LINE
  5
1BB
330
1B9
100
AcDbEntity
  8
1
  6
Continuous
 62
     7
100
AcDbLine
 10
-181.4999999999999
 20
343.9000000000002
 30
0.0
 11
-181.4999999999999
 21
364.5
 31
0.0
  0
LINE
  5
1BC
330
1B9
100
AcDbEntity
  8
1
  6
Continuous
 62
     7
100
AcDbLine
 10
-294.5000000000001
 20
343.9000000000002
 30
0.0
 11
-294.5000000000001
 21
364.5
 31
0.0
  0
SOLID
  5
1BD
330
1B9
100
AcDbEntity
  8
1
 62
     7
100
AcDbTrace
 10
-288.5000000000001
 20
363.2899149855244
 30
0.0
 11
-288.5000000000001
 21
361.7100850144756
 31
0.0
 12
-294.5000000000001
 22
362.5
 32
0.0
 13
-294.5000000000001
 23
362.5
 33
0.0
  0
SOLID
  5
1BE
330
1B9
100
AcDbEntity
  8
1
 62
     7
100
AcDbTrace
 10
-187.4999999999999
 20
361.7100850144756
 30
0.0
 11
-187.4999999999999
 21
363.2899149855244
 31
0.0
 12
-181.4999999999999
 22
362.5
 32
0.0
 13
-181.4999999999999
 23
362.5
 33
0.0
  0
MTEXT
  5
1BF
330
1B9
100
AcDbEntity
  8
1
 62
     7
100
AcDbMText
 10
-243.4
 20
366.5
 30
0.0
 40
6.0
 41
0.0
 71
     7
 72
     1
  1
113
  7
CONVERTER_13
 11
0.9999999999970619
 21
2.424068405545306E-6
 31
0.0
 73
     1
 44
0.60024009603842
  0
ENDBLK
  5
1C1
330
1B9
100
AcDbEntity
  8
0
100
AcDbBlockEnd
  0
BLOCK
  5
1CB
330
1C4
100
AcDbEntity
  8
0
100
AcDbBlockBegin
  2
*D7
 70
     1
 10
0.0
 20
0.0
 30
0.0
  3
*D7
  1
*D7
  0
LINE
  5
1C5
330
1C4
100
AcDbEntity
  8
1
  6
Continuous
 62
     7
100
AcDbLine
 10
-300.4999999999999
 20
157.5
 30
0.0
 11
-175.4999999999999
 21
157.5
 31
0.0
  0
LINE
  5
1C6
330
1C4
100
AcDbEntity
  8
1
  6
Continuous
 62
     7
100
AcDbLine
 10
-175.4999999999999
 20
176.5
 30
0.0
 11
-175.4999999999999
 21
155.5
 31
0.0
  0
LINE
  5
1C7
330
1C4
100
AcDbEntity
  8
1
  6
Continuous
 62
     7
100
AcDbLine
 10
-300.4999999999999
 20
176.5000000000001
 30
0.0
 11
-300.4999999999999
 21
155.5
 31
0.0
  0
SOLID
  5
1C8
330
1C4
100
AcDbEntity
  8
1
 62
     7
100
AcDbTrace
 10
-294.4999999999999
 20
158.2899149855244
 30
0.0
 11
-294.4999999999999
 21
156.7100850144756
 31
0.0
 12
-300.4999999999999
 22
157.5
 32
0.0
 13
-300.4999999999999
 23
157.5
 33
0.0
  0
SOLID
  5
1C9
330
1C4
100
AcDbEntity
  8
1
 62
     7
100
AcDbTrace
 10
-181.4999999999999
 20
156.7100850144756
 30
0.0
 11
-181.4999999999999
 21
158.2899149855244
 31
0.0
 12
-175.4999999999999
 22
157.5
 32
0.0
 13
-175.4999999999999
 23
157.5
 33
0.0
  0
MTEXT
  5
1CA
330
1C4
100
AcDbEntity
  8
1
 62
     7
100
AcDbMText
 10
-244.2999999999999
 20
161.5
 30
0.0
 40
6.0
 41
0.0
 71
     7
 72
     1
  1
125
  7
CONVERTER_13
 11
0.9999999999970619
 21
2.424068405545306E-6
 31
0.0
 73
     1
 44
0.60024009603842
  0
ENDBLK
  5
1CC
330
1C4
100
AcDbEntity
  8
0
100
AcDbBlockEnd
  0
BLOCK
  5
1D8
330
1CF
100
AcDbEntity
  8
0
100
AcDbBlockBegin
  2
*D8
 70
     1
 10
0.0
 20
0.0
 30
0.0
  3
*D8
  1
*D8
  0
LINE
  5
1D0
330
1CF
100
AcDbEntity
  8
1
  6
Continuous
 62
     7
100
AcDbLine
 10
-155.5000000000002
 20
456.4000000000001
 30
0.0
 11
-155.5000000000002
 21
444.4000000000001
 31
0.0
  0
LINE
  5
1D1
330
1CF
100
AcDbEntity
  8
1
  6
Continuous
 62
     7
100
AcDbLine
 10
-155.5000000000002
 20
457.9000000000001
 30
0.0
 11
-155.5000000000002
 21
456.4000000000001
 31
0.0
  0
LINE
  5
1D2
330
1CF
100
AcDbEntity
  8
1
  6
Continuous
 62
     7
100
AcDbLine
 10
-155.5000000000002
 20
477.312411052976
 30
0.0
 11
-155.5000000000002
 21
457.9000000000001
 31
0.0
  0
LINE
  5
1D3
330
1CF
100
AcDbEntity
  8
1
  6
Continuous
 62
     7
100
AcDbLine
 10
-174.5
 20
456.4000000000001
 30
0.0
 11
-153.5000000000002
 21
456.4000000000001
 31
0.0
  0
LINE
  5
1D4
330
1CF
100
AcDbEntity
  8
1
  6
Continuous
 62
     7
100
AcDbLine
 10
-174.5
 20
457.9000000000001
 30
0.0
 11
-153.5000000000002
 21
457.9000000000001
 31
0.0
  0
SOLID
  5
1D5
330
1CF
100
AcDbEntity
  8
1
 62
     7
100
AcDbTrace
 10
-156.2899149855246
 20
463.9000000000001
 30
0.0
 11
-154.7100850144758
 21
463.9000000000001
 31
0.0
 12
-155.5000000000002
 22
457.9000000000001
 32
0.0
 13
-155.5000000000002
 23
457.9000000000001
 33
0.0
  0
SOLID
  5
1D6
330
1CF
100
AcDbEntity
  8
1
 62
     7
100
AcDbTrace
 10
-154.7100850144758
 20
450.4000000000001
 30
0.0
 11
-156.2899149855246
 21
450.4000000000001
 31
0.0
 12
-155.5000000000002
 22
456.4000000000001
 32
0.0
 13
-155.5000000000002
 23
456.4000000000001
 33
0.0
  0
MTEXT
  5
1D7
330
1CF
100
AcDbEntity
  8
1
 62
     7
100
AcDbMText
 10
-160.1000000000002
 20
468.012411052976
 30
0.0
 40
6.0
 41
0.0
 71
     7
 72
     1
  1
1,5
  7
CONVERTER_13
 11
0.0
 21
1.0
 31
0.0
 73
     1
 44
0.60024009603842
  0
ENDBLK
  5
1D9
330
1CF
100
AcDbEntity
  8
0
100
AcDbBlockEnd
  0
BLOCK
  5
1E3
330
1DC
100
AcDbEntity
  8
0
100
AcDbBlockBegin
  2
*D9
 70
     1
 10
0.0
 20
0.0
 30
0.0
  3
*D9
  1
*D9
  0
LINE
  5
1DD
330
1DC
100
AcDbEntity
  8
1
  6
Continuous
 62
     7
100
AcDbLine
 10
-155.4999999999999
 20
342.5
 30
0.0
 11
-155.4999999999999
 21
177.4999999999999
 31
0.0
  0
LINE
  5
1DE
330
1DC
100
AcDbEntity
  8
1
  6
Continuous
 62
     7
100
AcDbLine
 10
-174.4999999999999
 20
177.4999999999999
 30
0.0
 11
-153.4999999999999
 21
177.4999999999999
 31
0.0
  0
LINE
  5
1DF
330
1DC
100
AcDbEntity
  8
1
  6
Continuous
 62
     7
100
AcDbLine
 10
-174.5
 20
342.5
 30
0.0
 11
-153.4999999999999
 21
342.5
 31
0.0
  0
SOLID
  5
1E0
330
1DC
100
AcDbEntity
  8
1
 62
     7
100
AcDbTrace
 10
-154.7100850144755
 20
336.5
 30
0.0
 11
-156.2899149855243
 21
336.5
 31
0.0
 12
-155.4999999999999
 22
342.5
 32
0.0
 13
-155.4999999999999
 23
342.5
 33
0.0
  0
SOLID
  5
1E1
330
1DC
100
AcDbEntity
  8
1
 62
     7
100
AcDbTrace
 10
-156.2899149855243
 20
183.4999999999999
 30
0.0
 11
-154.7100850144755
 21
183.4999999999999
 31
0.0
 12
-155.4999999999999
 22
177.4999999999999
 32
0.0
 13
-155.4999999999999
 23
177.4999999999999
 33
0.0
  0
MTEXT
  5
1E2
330
1DC
100
AcDbEntity
  8
1
 62
     7
100
AcDbMText
 10
-159.4999999999999
 20
253.6999999999999
 30
0.0
 40
6.0
 41
0.0
 71
     7
 72
     1
  1
165
  7
CONVERTER_13
 11
0.0
 21
1.0
 31
0.0
 73
     1
 44
0.60024009603842
  0
ENDBLK
  5
1E4
330
1DC
100
AcDbEntity
  8
0
100
AcDbBlockEnd
  0
ENDSEC
  0
SECTION
  2
ENTITIES
  0
INSERT
  5
7C
330
1F
100
AcDbEntity
  8
0
100
AcDbBlockReference
  2
A4
 10
0.0
 20
0.0
 30
0.0
  0
INSERT
  5
7D
330
1F
100
AcDbEntity
  8
1
100
AcDbBlockReference
  2
_dummy_frame
 10
137.4775998324
 20
306.249716874292
 30
0.0
  0
LINE
  5
DA
330
1F
100
AcDbEntity
  8
1
  6
DOT_CENTER
 62
     7
100
AcDbLine
 10
-201.4999999999999
 20
339.36
 30
0.0
 11
-201.4999999999999
 21
329.64
 31
0.0
  0
LINE
  5
DB
330
1F
100
AcDbEntity
  8
1
  6
DOT_CENTER
 62
     7
100
AcDbLine
 10
-196.64
 20
334.5
 30
0.0
 11
-206.3600000000001
 21
334.5
 31
0.0
  0
LINE
  5
DC
330
1F
100
AcDbEntity
  8
1
  6
DOT_CENTER
 62
     7
100
AcDbLine
 10
-181.4999999999999
 20
342.9000000000002
 30
0.0
 11
-181.4999999999999
 21
330.0999999999999
 31
0.0
  0
LINE
  5
DD
330
1F
100
AcDbEntity
  8
1
  6
DOT_CENTER
 62
     7
100
AcDbLine
 10
-175.0999999999998
 20
336.5
 30
0.0
 11
-187.9000000000002
 21
336.5
 31
0.0
  0
LINE
  5
DE
330
1F
100
AcDbEntity
  8
1
  6
DOT_CENTER
 62
     7
100
AcDbLine
 10
-274.5000000000001
 20
339.36
 30
0.0
 11
-274.5000000000001
 21
329.64
 31
0.0
  0
LINE
  5
DF
330
1F
100
AcDbEntity
  8
1
  6
DOT_CENTER
 62
     7
100
AcDbLine
 10
-269.6399999999999
 20
334.5
 30
0.0
 11
-279.3600000000001
 21
334.5
 31
0.0
  0
LINE
  5
E0
330
1F
100
AcDbEntity
  8
1
  6
DOT_CENTER
 62
     7
100
AcDbLine
 10
-294.5000000000001
 20
342.9000000000002
 30
0.0
 11
-294.5000000000001
 21
330.0999999999999
 31
0.0
  0
LINE
  5
E1
330
1F
100
AcDbEntity
  8
1
  6
DOT_CENTER
 62
     7
100
AcDbLine
 10
-288.0999999999999
 20
336.5
 30
0.0
 11
-300.9000000000001
 21
336.5
 31
0.0
  0
LINE
  5
E2
330
1F
100
AcDbEntity
  8
1
  6
DOT_CENTER
 62
     7
100
AcDbLine
 10
-181.4999999999999
 20
189.9000000000002
 30
0.0
 11
-181.4999999999999
 21
177.1
 31
0.0
  0
LINE
  5
E3
330
1F
100
AcDbEntity
  8
1
  6
DOT_CENTER
 62
     7
100
AcDbLine
 10
-175.0999999999999
 20
183.5000000000001
 30
0.0
 11
-187.9
 21
183.5000000000001
 31
0.0
  0
LINE
  5
E4
330
1F
100
AcDbEntity
  8
1
  6
DOT_CENTER
 62
     7
100
AcDbLine
 10
-201.4999999999999
 20
190.36
 30
0.0
 11
-201.4999999999999
 21
180.6400000000002
 31
0.0
  0
LINE
  5
E5
330
1F
100
AcDbEntity
  8
1
  6
DOT_CENTER
 62
     7
100
AcDbLine
 10
-196.64
 20
185.5000000000001
 30
0.0
 11
-206.36
 21
185.5000000000001
 31
0.0
  0
LINE
  5
E6
330
1F
100
AcDbEntity
  8
1
  6
DOT_CENTER
 62
     7
100
AcDbLine
 10
-294.5000000000001
 20
189.9000000000001
 30
0.0
 11
-294.5000000000001
 21
177.1
 31
0.0
  0
LINE
  5
E7
330
1F
100
AcDbEntity
  8
1
  6
DOT_CENTER
 62
     7
100
AcDbLine
 10
-288.1
 20
183.5000000000001
 30
0.0
 11
-300.8999999999999
 21
183.5000000000001
 31
0.0
  0
LINE
  5
E8
330
1F
100
AcDbEntity
  8
1
  6
DOT_CENTER
 62
     7
100
AcDbLine
 10
-274.5000000000001
 20
190.3600000000001
 30
0.0
 11
-274.5000000000001
 21
180.64
 31
0.0
  0
LINE
  5
E9
330
1F
100
AcDbEntity
  8
1
  6
DOT_CENTER
 62
     7
100
AcDbLine
 10
-269.6399999999999
 20
185.5
 30
0.0
 11
-279.3600000000001
 21
185.5
 31
0.0
  0
LINE
  5
EA
330
1F
100
AcDbEntity
  8
1
  6
Continuous
 62
     7
100
AcDbLine
 10
-300.5000000000001
 20
177.5000000000001
 30
0.0
 11
-300.5000000000001
 21
342.5
 31
0.0
  0
LINE
  5
EB
330
1F
100
AcDbEntity
  8
1
  6
Continuous
 62
     7
100
AcDbLine
 10
-175.5
 20
342.5
 30
0.0
 11
-175.4999999999998
 21
177.4999999999999
 31
0.0
  0
LINE
  5
EC
330
1F
100
AcDbEntity
  8
1
  6
Continuous
 62
     7
100
AcDbLine
 10
-189.0968481305139
 20
185.5
 30
0.0
 11
-191.5000000000001
 21
185.5
 31
0.0
  0
LINE
  5
ED
330
1F
100
AcDbEntity
  8
1
  6
Continuous
 62
     7
100
AcDbLine
 10
-189.9449108050823
 20
186.5600783432105
 30
0.0
 11
-193.0673233796293
 21
186.5600783432105
 31
0.0
  0
LINE
  5
EE
330
1F
100
AcDbEntity
  8
1
  6
Continuous
 62
     7
100
AcDbLine
 10
-190.7929734796506
 20
187.6201566864211
 30
0.0
 11
-192.2192607050612
 21
187.6201566864211
 31
0.0
  0
LINE
  5
EF
330
1F
100
AcDbEntity
  8
1
  6
Continuous
 62
     7
100
AcDbLine
 10
-191.5000000000001
 20
183.2414042682244
 30
0.0
 11
-191.5000000000001
 21
185.5
 31
0.0
  0
LINE
  5
F0
330
1F
100
AcDbEntity
  8
1
  6
Continuous
 62
     7
100
AcDbLine
 10
-191.5000000000001
 20
185.5
 30
0.0
 11
-193.9153860541977
 21
185.5
 31
0.0
  0
LINE
  5
F1
330
1F
100
AcDbEntity
  8
1
  6
Continuous
 62
     7
100
AcDbLine
 10
-284.4999999999998
 20
334.5
 30
0.0
 11
-282.0846139458022
 21
334.5
 31
0.0
  0
LINE
  5
F2
330
1F
100
AcDbEntity
  8
1
  6
Continuous
 62
     7
100
AcDbLine
 10
-284.4999999999998
 20
336.7585957317756
 30
0.0
 11
-284.4999999999998
 21
334.5
 31
0.0
  0
LINE
  5
F3
330
1F
100
AcDbEntity
  8
1
  6
Continuous
 62
     7
100
AcDbLine
 10
-285.2070265203494
 20
332.3798433135789
 30
0.0
 11
-283.7807392949388
 21
332.3798433135789
 31
0.0
  0
LINE
  5
F4
330
1F
100
AcDbEntity
  8
1
  6
Continuous
 62
     7
100
AcDbLine
 10
-286.0550891949177
 20
333.4399216567894
 30
0.0
 11
-282.9326766203707
 21
333.4399216567894
 31
0.0
  0
LINE
  5
F5
330
1F
100
AcDbEntity
  8
1
  6
Continuous
 62
     7
100
AcDbLine
 10
-286.9031518694861
 20
334.5
 30
0.0
 11
-284.4999999999998
 21
334.5
 31
0.0
  0
LINE
  5
F6
330
1F
100
AcDbEntity
  8
1
  6
Continuous
 62
     7
100
AcDbLine
 10
-300.5000000000001
 20
342.5
 30
0.0
 11
-175.5
 21
342.5
 31
0.0
  0
LINE
  5
F7
330
1F
100
AcDbEntity
  8
1
  6
Continuous
 62
     7
100
AcDbLine
 10
-175.4999999999998
 20
177.4999999999999
 30
0.0
 11
-300.5000000000001
 21
177.5000000000001
 31
0.0
  0
LINE
  5
F8
330
1F
100
AcDbEntity
  8
1
  6
Continuous
 62
     7
100
AcDbLine
 10
-295.2475456090639
 20
340.4295261244034
 30
0.0
 11
-294.5000000000001
 21
339.6819805153394
 31
0.0
  0
LINE
  5
F9
330
1F
100
AcDbEntity
  8
1
  6
Continuous
 62
     7
100
AcDbLine
 10
-294.5000000000001
 20
339.6819805153394
 30
0.0
 11
-290.5704738755965
 21
335.752454390936
 31
0.0
  0
LINE
  5
FA
330
1F
100
AcDbEntity
  8
1
  6
Continuous
 62
     7
100
AcDbLine
 10
-293.7524543909361
 20
332.5704738755967
 30
0.0
 11
-298.4295261244034
 21
337.247545609064
 31
0.0
  0
LINE
  5
FB
330
1F
100
AcDbEntity
  8
1
  6
Continuous
 62
     7
100
AcDbLine
 10
-177.5704738755966
 20
337.247545609064
 30
0.0
 11
-182.2475456090639
 21
332.5704738755967
 31
0.0
  0
LINE
  5
FC
330
1F
100
AcDbEntity
  8
1
  6
Continuous
 62
     7
100
AcDbLine
 10
-185.4295261244035
 20
335.752454390936
 30
0.0
 11
-181.4999999999999
 21
339.6819805153394
 31
0.0
  0
LINE
  5
FD
330
1F
100
AcDbEntity
  8
1
  6
Continuous
 62
     7
100
AcDbLine
 10
-181.4999999999999
 20
339.6819805153394
 30
0.0
 11
-180.752454390936
 21
340.4295261244034
 31
0.0
  0
LINE
  5
FE
330
1F
100
AcDbEntity
  8
1
  6
Continuous
 62
     7
100
AcDbLine
 10
-180.752454390936
 20
179.5704738755966
 30
0.0
 11
-181.4999999999999
 21
180.3180194846606
 31
0.0
  0
LINE
  5
FF
330
1F
100
AcDbEntity
  8
1
  6
Continuous
 62
     7
100
AcDbLine
 10
-181.4999999999999
 20
180.3180194846606
 30
0.0
 11
-185.4295261244035
 21
184.2475456090641
 31
0.0
  0
LINE
  5
100
330
1F
100
AcDbEntity
  8
1
  6
Continuous
 62
     7
100
AcDbLine
 10
-182.2475456090639
 20
187.4295261244034
 30
0.0
 11
-177.5704738755966
 21
182.752454390936
 31
0.0
  0
LINE
  5
101
330
1F
100
AcDbEntity
  8
1
  6
Continuous
 62
     7
100
AcDbLine
 10
-298.4295261244034
 20
182.752454390936
 30
0.0
 11
-293.7524543909361
 21
187.4295261244034
 31
0.0
  0
LINE
  5
102
330
1F
100
AcDbEntity
  8
1
  6
Continuous
 62
     7
100
AcDbLine
 10
-290.5704738755965
 20
184.2475456090641
 30
0.0
 11
-294.5000000000001
 21
180.3180194846606
 31
0.0
  0
LINE
  5
103
330
1F
100
AcDbEntity
  8
1
  6
Continuous
 62
     7
100
AcDbLine
 10
-294.5000000000001
 20
180.3180194846606
 30
0.0
 11
-295.2475456090639
 21
179.5704738755966
 31
0.0
  0
LINE
  5
104
330
1F
100
AcDbEntity
  8
1
  6
Continuous
 62
     7
100
AcDbLine
 10
-175.4999999999999
 20
456.4000000000001
 30
0.0
 11
-300.4999999999999
 21
456.4000000000001
 31
0.0
  0
LINE
  5
105
330
1F
100
AcDbEntity
  8
1
  6
Continuous
 62
     7
100
AcDbLine
 10
-300.4999999999999
 20
456.4000000000001
 30
0.0
 11
-300.4999999999998
 21
457.9000000000001
 31
0.0
  0
LINE
  5
106
330
1F
100
AcDbEntity
  8
1
  6
Continuous
 62
     7
100
AcDbLine
 10
-300.4999999999998
 20
457.9000000000001
 30
0.0
 11
-175.5
 21
457.9000000000001
 31
0.0
  0
LINE
  5
107
330
1F
100
AcDbEntity
  8
1
  6
Continuous
 62
     7
100
AcDbLine
 10
-175.5
 20
457.9000000000001
 30
0.0
 11
-175.4999999999999
 21
456.4000000000001
 31
0.0
  0
LINE
  5
108
330
1F
100
AcDbEntity
  8
1
  6
DOT_CENTER
 62
     7
100
AcDbLine
 10
-294.4999999999998
 20
460.7311955340781
 30
0.0
 11
-294.4999999999998
 21
453.631195534078
 31
0.0
  0
LINE
  5
109
330
1F
100
AcDbEntity
  8
1
  6
DOT_CENTER
 62
     7
100
AcDbLine
 10
-274.4999999999998
 20
460.7311955340781
 30
0.0
 11
-274.4999999999998
 21
453.631195534078
 31
0.0
  0
LINE
  5
10A
330
1F
100
AcDbEntity
  8
1
  6
DOT_CENTER
 62
     7
100
AcDbLine
 10
-201.4999999999999
 20
460.7311955340781
 30
0.0
 11
-201.4999999999999
 21
453.631195534078
 31
0.0
  0
LINE
  5
10B
330
1F
100
AcDbEntity
  8
1
  6
DOT_CENTER
 62
     7
100
AcDbLine
 10
-181.4999999999999
 20
460.7311955340781
 30
0.0
 11
-181.4999999999999
 21
453.631195534078
 31
0.0
  0
LINE
  5
10C
330
1F
100
AcDbEntity
  8
0
  6
Continuous
 62
     7
100
AcDbLine
 10
-36.54073772597562
 20
495.9528331506126
 30
0.0
 11
-34.77297077300926
 21
496.9759717463704
 31
0.0
  0
LINE
  5
10D
330
1F
100
AcDbEntity
  8
0
  6
Continuous
 62
     7
100
AcDbLine
 10
-35.08409775673133
 20
497.1220943804414
 30
0.0
 11
-35.18977200101438
 21
497.1832559479897
 31
0.0
  0
LINE
  5
10E
330
1F
100
AcDbEntity
  8
0
  6
Continuous
 62
     7
100
AcDbLine
 10
-35.08409775673133
 20
497.244417515538
 30
0.0
 11
-35.08409775673133
 21
497.1220943804414
 31
0.0
  0
LINE
  5
10F
330
1F
100
AcDbEntity
  8
0
  6
Continuous
 62
     7
100
AcDbLine
 10
-35.08409775673133
 20
497.1220943804414
 30
0.0
 11
-36.22961074225356
 21
496.4591005703903
 31
0.0
  0
LINE
  5
110
330
1F
100
AcDbEntity
  8
0
  6
Continuous
 62
     7
100
AcDbLine
 10
-36.22961074225356
 20
496.4591005703903
 30
0.0
 11
-36.22961074225356
 21
496.5814237054869
 31
0.0
  0
LINE
  5
111
330
1F
100
AcDbEntity
  8
0
  6
Continuous
 62
     7
100
AcDbLine
 10
-35.39522474045342
 20
497.5128632847056
 30
0.0
 11
-35.39522474045342
 21
497.390540149609
 31
0.0
  0
LINE
  5
112
330
1F
100
AcDbEntity
  8
0
  6
Continuous
 62
     7
100
AcDbLine
 10
-35.91848375853141
 20
497.2100142603613
 30
0.0
 11
-35.39522474045342
 21
497.5128632847056
 31
0.0
  0
LINE
  5
113
330
1F
100
AcDbEntity
  8
0
  6
Continuous
 62
     7
100
AcDbLine
 10
-35.91848375853141
 20
497.0876911252647
 30
0.0
 11
-35.91848375853141
 21
497.2100142603613
 31
0.0
  0
LINE
  5
114
330
1F
100
AcDbEntity
  8
0
  6
Continuous
 62
     7
100
AcDbLine
 10
-35.39522474045342
 20
497.390540149609
 30
0.0
 11
-35.91848375853141
 21
497.0876911252647
 31
0.0
  0
LINE
  5
115
330
1F
100
AcDbEntity
  8
0
  6
Continuous
 62
     7
100
AcDbLine
 10
-36.22961074225356
 20
496.5814237054869
 30
0.0
 11
-35.08409775673133
 21
497.244417515538
 31
0.0
  0
LINE
  5
116
330
1F
100
AcDbEntity
  8
0
  6
Continuous
 62
     7
100
AcDbLine
 10
-34.77297077300926
 20
496.8536486112737
 30
0.0
 11
-34.87864501729231
 21
496.9148101788221
 31
0.0
  0
LINE
  5
117
330
1F
100
AcDbEntity
  8
0
  6
Continuous
 62
     7
100
AcDbLine
 10
-34.77297077300926
 20
496.9759717463704
 30
0.0
 11
-34.77297077300926
 21
496.8536486112737
 31
0.0
  0
LINE
  5
118
330
1F
100
AcDbEntity
  8
0
  6
Continuous
 62
     7
100
AcDbLine
 10
-34.77297077300926
 20
496.8536486112737
 30
0.0
 11
-35.60382124090347
 21
496.3727734712676
 31
0.0
  0
LINE
  5
119
330
1F
100
AcDbEntity
  8
0
  6
Continuous
 62
     7
100
AcDbLine
 10
-35.19678609339059
 20
497.7689864899162
 30
0.0
 11
-34.9492987199753
 21
497.6257470865102
 31
0.0
  0
LINE
  5
11A
330
1F
100
AcDbEntity
  8
0
  6
Continuous
 62
     7
100
AcDbLine
 10
-35.60382124090347
 20
496.3727734712676
 30
0.0
 11
-35.70949548518649
 21
496.4339350388159
 31
0.0
  0
LINE
  5
11B
330
1F
100
AcDbEntity
  8
0
  6
Continuous
 62
     7
100
AcDbLine
 10
-35.39522474045342
 20
497.390540149609
 30
0.0
 11
-35.50089898473644
 21
497.4517017171573
 31
0.0
  0
LINE
  5
11C
330
1F
100
AcDbEntity
  8
0
  6
Continuous
 62
     7
100
AcDbLine
 10
-30.73202305885198
 20
498.1333133982364
 30
0.0
 11
-32.38561762826737
 21
499.0833018021406
 31
0.0
  0
LINE
  5
11D
330
1F
100
AcDbEntity
  8
0
  6
Continuous
 62
     7
100
AcDbLine
 10
-32.38735314474184
 20
496.4917007868827
 30
0.0
 11
-33.51030252410629
 21
497.1368340670099
 31
0.0
  0
LINE
  5
11E
330
1F
100
AcDbEntity
  8
0
  6
Continuous
 62
     7
100
AcDbLine
 10
-32.38735314474184
 20
496.4917007868827
 30
0.0
 11
-31.85702305885192
 21
496.1847592081553
 31
0.0
  0
LINE
  5
11F
330
1F
100
AcDbEntity
  8
0
  6
Continuous
 62
     7
100
AcDbLine
 10
-33.51061762826737
 20
497.1347476120595
 30
0.0
 11
-31.85702305885192
 21
496.1847592081553
 31
0.0
  0
LINE
  5
120
330
1F
100
AcDbEntity
  8
0
  6
Continuous
 62
     7
100
AcDbLine
 10
-30.0
 20
496.4153341181248
 30
0.0
 11
-30.0
 21
563.6930584212729
 31
0.0
  0
LINE
  5
121
330
1F
100
AcDbEntity
  8
0
  6
Continuous
 62
     7
100
AcDbLine
 10
-35.70988725808141
 20
496.3113851555221
 30
0.0
 11
-35.81556150236449
 21
496.3725467230704
 31
0.0
  0
LINE
  5
122
330
1F
100
AcDbEntity
  8
0
  6
Continuous
 62
     7
100
AcDbLine
 10
-36.54073772597562
 20
495.8305100155159
 30
0.0
 11
-36.54073772597562
 21
495.9528331506126
 31
0.0
  0
LINE
  5
123
330
1F
100
AcDbEntity
  8
0
  6
Continuous
 62
     7
100
AcDbLine
 10
-35.60382124090347
 20
496.3727734712676
 30
0.0
 11
-35.60382124090347
 21
495.4757371472256
 31
0.0
  0
LINE
  5
124
330
1F
100
AcDbEntity
  8
0
  6
Continuous
 62
     7
100
AcDbLine
 10
-35.70988725808141
 20
495.4143488314801
 30
0.0
 11
-35.70988725808141
 21
496.3113851555221
 31
0.0
  0
LINE
  5
125
330
1F
100
AcDbEntity
  8
0
  6
Continuous
 62
     7
100
AcDbLine
 10
-35.70988725808141
 20
496.3113851555221
 30
0.0
 11
-36.54073772597562
 21
495.8305100155159
 31
0.0
  0
LINE
  5
126
330
1F
100
AcDbEntity
  8
0
  6
Continuous
 62
     7
100
AcDbLine
 10
-35.60382124090347
 20
495.4757371472256
 30
0.0
 11
-35.70988725808141
 21
495.5371254629711
 31
0.0
  0
LINE
  5
127
330
1F
100
AcDbEntity
  8
0
  6
Continuous
 62
     7
100
AcDbLine
 10
-36.61189715242486
 20
495.3239740787823
 30
0.0
 11
-36.36440977900958
 21
495.1807346753762
 31
0.0
  0
LINE
  5
128
330
1F
100
AcDbEntity
  8
0
  6
Continuous
 62
     7
100
AcDbLine
 10
-35.60382124090347
 20
495.4757371472256
 30
0.0
 11
-35.70988725808141
 21
495.4143488314801
 31
0.0
  0
LINE
  5
129
330
1F
100
AcDbEntity
  8
0
  6
Continuous
 62
     7
100
AcDbLine
 10
-72.33715076530734
 20
472.7558898381395
 30
0.0
 11
-70.68355619589194
 21
475.6199952842991
 31
0.0
  0
LINE
  5
12A
330
1F
100
AcDbEntity
  8
0
  6
Continuous
 62
     7
100
AcDbLine
 10
-70.68355619589194
 20
475.6199952842991
 30
0.0
 11
-71.21388628178184
 21
475.9269368630265
 31
0.0
  0
LINE
  5
12B
330
1F
100
AcDbEntity
  8
0
  6
Continuous
 62
     7
100
AcDbLine
 10
-71.21388628178184
 20
475.9269368630265
 30
0.0
 11
-72.86748085119726
 21
473.0628314168669
 31
0.0
  0
LINE
  5
12C
330
1F
100
AcDbEntity
  8
0
  6
Continuous
 62
     7
100
AcDbLine
 10
-72.33715076530734
 20
472.7558898381395
 30
0.0
 11
-72.86748085119726
 21
473.0628314168669
 31
0.0
  0
LINE
  5
12D
330
1F
100
AcDbEntity
  8
0
  6
Continuous
 62
     7
100
AcDbLine
 10
-71.80855619589192
 20
476.266306643903
 30
0.0
 11
-73.46215076530731
 21
473.4022011977434
 31
0.0
  0
LINE
  5
12E
330
1F
100
AcDbEntity
  8
0
  6
Continuous
 62
     7
100
AcDbLine
 10
-74.19417382415924
 20
470.8368692241792
 30
0.0
 11
-30.0
 21
496.4153341181248
 31
0.0
  0
LINE
  5
12F
330
1F
100
AcDbEntity
  8
0
  6
Continuous
 62
     7
100
AcDbLine
 10
-30.53033008588989
 20
564.0000000000002
 30
0.0
 11
-30.0
 21
563.6930584212729
 31
0.0
  0
LINE
  5
130
330
1F
100
AcDbEntity
  8
0
  6
Continuous
 62
     7
100
AcDbLine
 10
-30.73202305885195
 20
561.1277264477087
 30
0.0
 11
-31.26235314474184
 21
561.4346680264362
 31
0.0
  0
LINE
  5
131
330
1F
100
AcDbEntity
  8
0
  6
Continuous
 62
     7
100
AcDbLine
 10
-31.26235314474184
 20
561.4346680264362
 30
0.0
 11
-32.91594771415726
 21
558.5705625802765
 31
0.0
  0
LINE
  5
132
330
1F
100
AcDbEntity
  8
0
  6
Continuous
 62
     7
100
AcDbLine
 10
-32.38561762826734
 20
558.2636210015492
 30
0.0
 11
-32.91594771415726
 21
558.5705625802765
 31
0.0
  0
LINE
  5
133
330
1F
100
AcDbEntity
  8
0
  6
Continuous
 62
     7
100
AcDbLine
 10
-32.38561762826734
 20
558.2636210015492
 30
0.0
 11
-30.73202305885195
 21
561.1277264477087
 31
0.0
  0
LINE
  5
134
330
1F
100
AcDbEntity
  8
0
  6
Continuous
 62
     7
100
AcDbLine
 10
-31.85702305885192
 20
561.7740378073127
 30
0.0
 11
-33.51061762826731
 21
558.909932361153
 31
0.0
  0
LINE
  5
135
330
1F
100
AcDbEntity
  8
0
  6
Continuous
 62
     7
100
AcDbLine
 10
-68.07725141856497
 20
539.4924323734818
 30
0.0
 11
-67.82976404514969
 21
539.3491929700758
 31
0.0
  0
LINE
  5
136
330
1F
100
AcDbEntity
  8
0
  6
Continuous
 62
     7
100
AcDbLine
 10
-67.65343609818365
 20
538.6994176299361
 30
0.0
 11
-67.65343609818365
 21
538.5770944948395
 31
0.0
  0
LINE
  5
137
330
1F
100
AcDbEntity
  8
0
  6
Continuous
 62
     7
100
AcDbLine
 10
-68.48428656607784
 20
538.2185424899299
 30
0.0
 11
-67.65343609818365
 21
538.6994176299361
 31
0.0
  0
LINE
  5
138
330
1F
100
AcDbEntity
  8
0
  6
Continuous
 62
     7
100
AcDbLine
 10
-67.65343609818365
 20
538.5770944948395
 30
0.0
 11
-67.75911034246668
 21
538.6382560623878
 31
0.0
  0
LINE
  5
139
330
1F
100
AcDbEntity
  8
0
  6
Continuous
 62
     7
100
AcDbLine
 10
-69.11007606742793
 20
537.285510129914
 30
0.0
 11
-69.11007606742793
 21
537.4078332650106
 31
0.0
  0
LINE
  5
13A
330
1F
100
AcDbEntity
  8
0
  6
Continuous
 62
     7
100
AcDbLine
 10
-68.27569006562784
 20
537.3199133850908
 30
0.0
 11
-68.79894908370585
 21
537.0170643607464
 31
0.0
  0
LINE
  5
13B
330
1F
100
AcDbEntity
  8
0
  6
Continuous
 62
     7
100
AcDbLine
 10
-68.79894908370585
 20
537.0170643607464
 30
0.0
 11
-68.79894908370585
 21
537.139387495843
 31
0.0
  0
LINE
  5
13C
330
1F
100
AcDbEntity
  8
0
  6
Continuous
 62
     7
100
AcDbLine
 10
-68.27569006562784
 20
537.4422365201874
 30
0.0
 11
-68.27569006562784
 21
537.3199133850908
 31
0.0
  0
LINE
  5
13D
330
1F
100
AcDbEntity
  8
0
  6
Continuous
 62
     7
100
AcDbLine
 10
-68.27569006562784
 20
537.3199133850908
 30
0.0
 11
-68.3813643099109
 21
537.381074952639
 31
0.0
  0
LINE
  5
13E
330
1F
100
AcDbEntity
  8
0
  6
Continuous
 62
     7
100
AcDbLine
 10
-68.79894908370585
 20
537.139387495843
 30
0.0
 11
-68.27569006562784
 21
537.4422365201874
 31
0.0
  0
LINE
  5
13F
330
1F
100
AcDbEntity
  8
0
  6
Continuous
 62
     7
100
AcDbLine
 10
-68.59035258325581
 20
539.0541904982265
 30
0.0
 11
-68.48428656607784
 21
539.1155788139719
 31
0.0
  0
LINE
  5
140
330
1F
100
AcDbEntity
  8
0
  6
Continuous
 62
     7
100
AcDbLine
 10
-68.59035258325581
 20
538.1571541741845
 30
0.0
 11
-68.59035258325581
 21
539.0541904982265
 31
0.0
  0
LINE
  5
141
330
1F
100
AcDbEntity
  8
0
  6
Continuous
 62
     7
100
AcDbLine
 10
-68.48428656607784
 20
539.1155788139719
 30
0.0
 11
-68.48428656607784
 21
538.2185424899299
 31
0.0
  0
LINE
  5
142
330
1F
100
AcDbEntity
  8
0
  6
Continuous
 62
     7
100
AcDbLine
 10
-68.48428656607784
 20
538.2185424899299
 30
0.0
 11
-68.5903525832558
 21
538.2799308056753
 31
0.0
  0
LINE
  5
143
330
1F
100
AcDbEntity
  8
0
  6
Continuous
 62
     7
100
AcDbLine
 10
-69.42120305115
 20
537.5539558990816
 30
0.0
 11
-69.42120305115
 21
537.6762790341783
 31
0.0
  0
LINE
  5
144
330
1F
100
AcDbEntity
  8
0
  6
Continuous
 62
     7
100
AcDbLine
 10
-67.96456308190572
 20
537.9485039399651
 30
0.0
 11
-68.07023732618875
 21
538.0096655075134
 31
0.0
  0
LINE
  5
145
330
1F
100
AcDbEntity
  8
0
  6
Continuous
 62
     7
100
AcDbLine
 10
-67.96456308190572
 20
538.0708270750617
 30
0.0
 11
-67.96456308190572
 21
537.9485039399651
 31
0.0
  0
LINE
  5
146
330
1F
100
AcDbEntity
  8
0
  6
Continuous
 62
     7
100
AcDbLine
 10
-69.42120305115
 20
537.6762790341783
 30
0.0
 11
-68.59035258325581
 21
538.1571541741845
 31
0.0
  0
LINE
  5
147
330
1F
100
AcDbEntity
  8
0
  6
Continuous
 62
     7
100
AcDbLine
 10
-67.96456308190572
 20
537.9485039399651
 30
0.0
 11
-69.11007606742793
 21
537.285510129914
 31
0.0
  0
LINE
  5
148
330
1F
100
AcDbEntity
  8
0
  6
Continuous
 62
     7
100
AcDbLine
 10
-67.65343609818365
 20
538.5770944948395
 30
0.0
 11
-69.42120305115
 21
537.5539558990816
 31
0.0
  0
LINE
  5
149
330
1F
100
AcDbEntity
  8
0
  6
Continuous
 62
     7
100
AcDbLine
 10
-69.11007606742793
 20
537.4078332650106
 30
0.0
 11
-67.96456308190572
 21
538.0708270750617
 31
0.0
  0
LINE
  5
14A
330
1F
100
AcDbEntity
  8
0
  6
Continuous
 62
     7
100
AcDbLine
 10
-69.49236247759924
 20
537.0474199623479
 30
0.0
 11
-69.24487510418396
 21
536.9041805589419
 31
0.0
  0
LINE
  5
14B
330
1F
100
AcDbEntity
  8
0
  6
Continuous
 62
     7
100
AcDbLine
 10
-30.0
 20
563.6930584212729
 30
0.0
 11
-74.19417382415922
 21
538.1145935273273
 31
0.0
  0
LINE
  5
14C
330
1F
100
AcDbEntity
  8
0
  6
Continuous
 62
     7
100
AcDbLine
 10
-74.19417382415922
 20
538.1145935273273
 30
0.0
 11
-74.19417382415924
 21
470.8368692241792
 31
0.0
  0
LINE
  5
14D
330
1F
100
AcDbEntity
  8
0
  6
Continuous
 62
     7
100
AcDbLine
 10
-74.72450391004912
 20
538.4215351060548
 30
0.0
 11
-74.72450391004914
 21
471.1438108029065
 31
0.0
  0
LINE
  5
14E
330
1F
100
AcDbEntity
  8
0
  6
Continuous
 62
     7
100
AcDbLine
 10
-74.72450391004914
 20
471.1438108029065
 30
0.0
 11
-74.19417382415924
 21
470.8368692241792
 31
0.0
  0
LINE
  5
14F
330
1F
100
AcDbEntity
  8
0
  6
Continuous
 62
     7
100
AcDbLine
 10
-70.68355619589188
 20
537.3951800333925
 30
0.0
 11
-72.33715076530729
 21
538.3451684372967
 31
0.0
  0
LINE
  5
150
330
1F
100
AcDbEntity
  8
0
  6
Continuous
 62
     7
100
AcDbLine
 10
-74.72450391004912
 20
538.4215351060548
 30
0.0
 11
-74.19417382415922
 21
538.1145935273273
 31
0.0
  0
LINE
  5
151
330
1F
100
AcDbEntity
  8
0
  6
Continuous
 62
     7
100
AcDbLine
 10
-72.33888628178178
 20
535.7535674220388
 30
0.0
 11
-71.80855619589187
 21
535.4466258433115
 31
0.0
  0
LINE
  5
152
330
1F
100
AcDbEntity
  8
0
  6
Continuous
 62
     7
100
AcDbLine
 10
-73.46215076530726
 20
536.3966142472157
 30
0.0
 11
-71.80855619589187
 21
535.4466258433115
 31
0.0
  0
LINE
  5
153
330
1F
100
AcDbEntity
  8
0
  6
Continuous
 62
     7
100
AcDbLine
 10
-72.33888628178178
 20
535.7535674220388
 30
0.0
 11
-73.46183566114543
 21
536.3987007021656
 31
0.0
  0
LINE
  5
154
330
1F
100
AcDbEntity
  8
0
  6
Continuous
 62
     7
100
AcDbLine
 10
-30.53033008588989
 20
564.0000000000002
 30
0.0
 11
-74.72450391004912
 21
538.4215351060548
 31
0.0
  0
ARC
  5
155
330
1F
100
AcDbEntity
  8
1
  6
Continuous
 62
     7
100
AcDbCircle
 10
-294.5000000000001
 20
336.5
 30
0.0
 40
3.999999999999938
100
AcDbArc
 50
100.7711336721844
 51
135.0
  0
ARC
  5
156
330
1F
100
AcDbEntity
  8
1
  6
Continuous
 62
     7
100
AcDbCircle
 10
-294.5000000000001
 20
336.5
 30
0.0
 40
3.999999999999869
100
AcDbArc
 50
280.7711336721879
 51
349.2288663278129
  0
ARC
  5
157
330
1F
100
AcDbEntity
  8
1
  6
Continuous
 62
     7
100
AcDbCircle
 10
-294.5000000000001
 20
336.5
 30
0.0
 40
4.000000000000032
100
AcDbArc
 50
135.0
 51
169.2288663278121
  0
ARC
  5
158
330
1F
100
AcDbEntity
  8
1
  6
Continuous
 62
     7
100
AcDbCircle
 10
-181.4999999999999
 20
336.5
 30
0.0
 40
3.999999999999841
100
AcDbArc
 50
10.77113367218799
 51
79.22886632781398
  0
ARC
  5
159
330
1F
100
AcDbEntity
  8
1
  6
Continuous
 62
     7
100
AcDbCircle
 10
-181.4999999999999
 20
336.5
 30
0.0
 40
4.000000000000176
100
AcDbArc
 50
190.7711336721871
 51
259.2288663278117
  0
ARC
  5
15A
330
1F
100
AcDbEntity
  8
1
  6
Continuous
 62
     7
100
AcDbCircle
 10
-181.4999999999999
 20
183.5000000000001
 30
0.0
 40
4.000000000000043
100
AcDbArc
 50
280.7711336721858
 51
314.9999999999989
  0
ARC
  5
15B
330
1F
100
AcDbEntity
  8
1
  6
Continuous
 62
     7
100
AcDbCircle
 10
-181.4999999999999
 20
183.5000000000001
 30
0.0
 40
3.999999999999846
100
AcDbArc
 50
100.7711336721884
 51
169.2288663278129
  0
ARC
  5
15C
330
1F
100
AcDbEntity
  8
1
  6
Continuous
 62
     7
100
AcDbCircle
 10
-181.4999999999999
 20
183.5000000000001
 30
0.0
 40
3.999999999999952
100
AcDbArc
 50
314.9999999999989
 51
349.2288663278104
  0
ARC
  5
15D
330
1F
100
AcDbEntity
  8
1
  6
Continuous
 62
     7
100
AcDbCircle
 10
-294.5000000000001
 20
183.5000000000001
 30
0.0
 40
3.99999999999989
100
AcDbArc
 50
190.7711336721895
 51
225.0
  0
ARC
  5
15E
330
1F
100
AcDbEntity
  8
1
  6
Continuous
 62
     7
100
AcDbCircle
 10
-294.5000000000001
 20
183.5000000000001
 30
0.0
 40
4.000000000000147
100
AcDbArc
 50
10.77113367218716
 51
79.22886632781201
  0
ARC
  5
15F
330
1F
100
AcDbEntity
  8
1
  6
Continuous
 62
     7
100
AcDbCircle
 10
-294.5000000000001
 20
183.5000000000001
 30
0.0
 40
4.000000000000032
100
AcDbArc
 50
225.0
 51
259.2288663278158
  0
CIRCLE
  5
160
330
1F
100
AcDbEntity
  8
1
  6
Continuous
 62
     7
100
AcDbCircle
 10
-274.5000000000001
 20
185.5
 30
0.0
 40
2.599999999999909
  0
CIRCLE
  5
161
330
1F
100
AcDbEntity
  8
1
  6
Continuous
 62
     7
100
AcDbCircle
 10
-274.5000000000001
 20
334.5
 30
0.0
 40
2.599999999999909
  0
CIRCLE
  5
162
330
1F
100
AcDbEntity
  8
1
  6
Continuous
 62
     7
100
AcDbCircle
 10
-201.4999999999999
 20
334.5
 30
0.0
 40
2.600000000000108
  0
CIRCLE
  5
163
330
1F
100
AcDbEntity
  8
1
  6
Continuous
 62
     7
100
AcDbCircle
 10
-191.5061170923557
 20
185.5061170923558
 30
0.0
 40
3.011586202302681
  0
CIRCLE
  5
164
330
1F
100
AcDbEntity
  8
1
  6
Continuous
 62
     7
100
AcDbCircle
 10
-284.4938829076443
 20
334.493882907644
 30
0.0
 40
3.011586202302794
  0
CIRCLE
  5
165
330
1F
100
AcDbEntity
  8
1
  6
Continuous
 62
     7
100
AcDbCircle
 10
-201.4999999999999
 20
185.5000000000001
 30
0.0
 40
2.599999999999881
  0
SPLINE
  5
166
330
1F
100
AcDbEntity
  8
0
  6
Continuous
 62
     7
100
AcDbSpline
210
0.0
220
0.0
230
1.0
 70
     8
 71
     3
 72
     9
 73
     5
 74
     3
 42
0.000000001
 43
0.0000000001
 44
0.00000001
 40
0.0
 40
0.0
 40
0.0
 40
0.0
 40
0.0862479990563666
 40
0.1743792236690957
 40
0.1743792236690957
 40
0.1743792236690957
 40
0.1743792236690957
 10
-34.9492987199753
 20
497.6257470865102
 30
0.0
 10
-34.97496383970606
 20
497.6390122773235
 30
0.0
 10
-35.02685448474865
 20
497.6658322860919
 30
0.0
 10
-35.08399588363171
 20
497.6779849048276
 30
0.0
 10
-35.11287513811422
 20
497.6841268263055
 30
0.0
 11
-34.9492987199753
 21
497.6257470865102
 31
0.0
 11
-35.02757857180431
 21
497.6619545759698
 31
0.0
 11
-35.11287513811422
 21
497.6841268263055
 31
0.0
  0
SPLINE
  5
167
330
1F
100
AcDbEntity
  8
0
  6
Continuous
 62
     7
100
AcDbSpline
210
0.0
220
0.0
230
1.0
 70
     8
 71
     3
 72
     9
 73
     5
 74
     3
 42
0.000000001
 43
0.0000000001
 44
0.00000001
 40
0.0
 40
0.0
 40
0.0
 40
0.0
 40
0.058503305589557
 40
0.1176040174496882
 40
0.1176040174496882
 40
0.1176040174496882
 40
0.1176040174496882
 10
-35.19678609339059
 20
497.7689864899162
 30
0.0
 10
-35.21400552593111
 20
497.7782369259343
 30
0.0
 10
-35.24862023552636
 20
497.7968322406581
 30
0.0
 10
-35.28605751969882
 20
497.8087696671784
 30
0.0
 10
-35.30487125259037
 20
497.8147686910401
 30
0.0
 11
-35.19678609339059
 21
497.7689864899162
 31
0.0
 11
-35.24914288819371
 21
497.7950901845742
 31
0.0
 11
-35.30487125259037
 21
497.8147686910401
 31
0.0
  0
SPLINE
  5
168
330
1F
100
AcDbEntity
  8
0
  6
Continuous
 62
     7
100
AcDbSpline
210
0.0
220
0.0
230
1.0
 70
     8
 71
     3
 72
     9
 73
     5
 74
     3
 42
0.000000001
 43
0.0000000001
 44
0.00000001
 40
0.0
 40
0.0
 40
0.0
 40
0.0
 40
0.0954070786970811
 40
0.1928973715051804
 40
0.1928973715051804
 40
0.1928973715051804
 40
0.1928973715051804
 10
-34.87416007967261
 20
497.7555707543579
 30
0.0
 10
-34.90255069887206
 20
497.7702446380155
 30
0.0
 10
-34.95995185414795
 20
497.7999127912889
 30
0.0
 10
-35.02316136687204
 20
497.813355951605
 30
0.0
 10
-35.05510744487052
 20
497.8201501125387
 30
0.0
 11
-34.87416007967261
 21
497.7555707543579
 31
0.0
 11
-34.96075283612062
 21
497.795623286946
 31
0.0
 11
-35.05510744487052
 21
497.8201501125387
 31
0.0
  0
SPLINE
  5
169
330
1F
100
AcDbEntity
  8
0
  6
Continuous
 62
     7
100
AcDbSpline
210
0.0
220
0.0
230
1.0
 70
     8
 71
     3
 72
     9
 73
     5
 74
     3
 42
0.000000001
 43
0.0000000001
 44
0.00000001
 40
0.0
 40
0.0
 40
0.0
 40
0.0
 40
0.1549873979892027
 40
0.2989149781451812
 40
0.2989149781451812
 40
0.2989149781451812
 40
0.2989149781451812
 10
-34.85575878941108
 20
497.5548338087053
 30
0.0
 10
-34.87479346249845
 20
497.6033027339047
 30
0.0
 10
-34.91150452205678
 20
497.6967818583996
 30
0.0
 10
-34.97651744549909
 20
497.7732404521856
 30
0.0
 10
-35.0078211799617
 20
497.8100552643472
 30
0.0
 11
-34.85575878941108
 21
497.5548338087053
 31
0.0
 11
-34.92047155320633
 21
497.6956647430909
 31
0.0
 11
-35.0078211799617
 21
497.8100552643472
 31
0.0
  0
SPLINE
  5
16A
330
1F
100
AcDbEntity
  8
0
  6
Continuous
 62
     7
100
AcDbSpline
210
0.0
220
0.0
230
1.0
 70
     8
 71
     3
 72
    19
 73
    15
 74
    13
 42
0.000000001
 43
0.0000000001
 44
0.00000001
 40
0.0
 40
0.0
 40
0.0
 40
0.0
 40
0.239195222676698
 40
0.5067506047585367
 40
0.8173604626828528
 40
1.171227023291854
 40
1.558672682896813
 40
1.964241012589182
 40
2.369809342281522
 40
2.757255001886557
 40
3.111121562495531
 40
3.421731420419839
 40
3.689286802501693
 40
3.928482025178402
 40
3.928482025178402
 40
3.928482025178402
 40
3.928482025178402
 10
-36.43954841931225
 20
495.0509110075284
 30
0.0
 10
-36.36444941802824
 20
495.0206556920663
 30
0.0
 10
-36.20534730578706
 20
494.9565578601496
 30
0.0
 10
-35.92555327972636
 20
494.998198473747
 30
0.0
 10
-35.64033667635601
 20
495.1241084037375
 30
0.0
 10
-35.35700788031598
 20
495.3357375898072
 30
0.0
 10
-35.09440579627798
 20
495.6155621592933
 30
0.0
 10
-34.86836062596694
 20
495.9468808062261
 30
0.0
 10
-34.69368155121829
 20
496.3079288441259
 30
0.0
 10
-34.58186334576035
 20
496.6750232913157
 30
0.0
 10
-34.53950175078671
 20
497.0261181707048
 30
0.0
 10
-34.57240696304302
 20
497.3361489245256
 30
0.0
 10
-34.67568008654932
 20
497.5994990710629
 30
0.0
 10
-34.81051541855879
 20
497.705524763317
 30
0.0
 10
-34.87416007967261
 20
497.7555707543579
 30
0.0
 11
-36.43954841931225
 21
495.0509110075284
 31
0.0
 11
-36.21105070634727
 21
494.9801780449136
 31
0.0
 11
-35.94478570613552
 21
495.0064237299133
 31
0.0
 11
-35.65889850468576
 21
495.1278609148268
 31
0.0
 11
-35.37287199167575
 21
495.3362124798906
 31
0.0
 11
-35.1061985464961
 21
495.6172808167036
 31
0.0
 11
-34.87705109386273
 21
495.951910628231
 31
0.0
 11
-34.70104633923189
 21
496.3172980830766
 31
0.0
 11
-34.59017782185592
 21
496.6885423533054
 31
0.0
 11
-34.55200208964125
 21
497.0403436527332
 31
0.0
 11
-34.58911963721962
 21
497.3487277792609
 31
0.0
 11
-34.69900208403854
 21
497.592678049193
 31
0.0
 11
-34.87416007967261
 21
497.7555707543579
 31
0.0
  0
SPLINE
  5
16B
330
1F
100
AcDbEntity
  8
0
  6
Continuous
 62
     7
100
AcDbSpline
210
0.0
220
0.0
230
1.0
 70
     8
 71
     3
 72
    19
 73
    15
 74
    13
 42
0.000000001
 43
0.0000000001
 44
0.00000001
 40
0.0
 40
0.0
 40
0.0
 40
0.0
 40
0.2186884963297052
 40
0.4695246816495851
 40
0.7554322146443988
 40
1.071495256165856
 40
1.407847679939928
 40
1.751881300863172
 40
2.090041809503825
 40
2.409494515519756
 40
2.699887182582584
 40
2.955484922072508
 40
3.177967517596533
 40
3.379300140327857
 40
3.379300140327857
 40
3.379300140327857
 40
3.379300140327857
 10
-35.11287513811422
 20
497.6841268263055
 30
0.0
 10
-35.18634649315223
 20
497.687593878356
 30
0.0
 10
-35.34408965168991
 20
497.6950376260171
 30
0.0
 10
-35.58487738204801
 20
497.6036400718187
 30
0.0
 10
-35.82613704787363
 20
497.4522973047862
 30
0.0
 10
-36.05729363604135
 20
497.2388134754225
 30
0.0
 10
-36.26534679202535
 20
496.9786110886415
 30
0.0
 10
-36.43869886027168
 20
496.685380219673
 30
0.0
 10
-36.56748200873869
 20
496.3760456001403
 30
0.0
 10
-36.64422978877837
 20
496.0683103869159
 30
0.0
 10
-36.66502555724234
 20
495.7782255061524
 30
0.0
 10
-36.62619031892562
 20
495.5239650622908
 30
0.0
 10
-36.53185798022763
 20
495.309518321645
 30
0.0
 10
-36.41833748355052
 20
495.222210219742
 30
0.0
 10
-36.36440977900958
 20
495.1807346753762
 30
0.0
 11
-35.11287513811422
 21
497.6841268263055
 31
0.0
 11
-35.33153502717792
 21
497.6805896875799
 31
0.0
 11
-35.56949728568922
 21
497.6012628109968
 31
0.0
 11
-35.81264280924245
 21
497.4508521315988
 31
0.0
 11
-36.04654483247434
 21
497.2382828768367
 31
0.0
 11
-36.25732483442711
 21
496.9761669826607
 31
0.0
 11
-36.4324767385676
 21
496.6800573047701
 31
0.0
 11
-36.56160761864402
 21
496.367522915784
 31
0.0
 11
-36.63705619963558
 21
496.057107803226
 31
0.0
 11
-36.65434517570261
 21
495.7672302574911
 31
0.0
 11
-36.61244939704977
 21
495.5150895289635
 31
0.0
 11
-36.51385404108878
 21
495.3156466467692
 31
0.0
 11
-36.36440977900958
 21
495.1807346753762
 31
0.0
  0
SPLINE
  5
16C
330
1F
100
AcDbEntity
  8
0
  6
Continuous
 62
     7
100
AcDbSpline
210
0.0
220
0.0
230
1.0
 70
     8
 71
     3
 72
    19
 73
    15
 74
    13
 42
0.000000001
 43
0.0000000001
 44
0.00000001
 40
0.0
 40
0.0
 40
0.0
 40
0.0
 40
0.241912053464187
 40
0.5193857093593046
 40
0.8356551043909191
 40
1.185282362429965
 40
1.557353627386445
 40
1.937921791898957
 40
2.311993150839514
 40
2.665370037875292
 40
2.986600864113295
 40
3.269341726135591
 40
3.515450792497197
 40
3.738163871403795
 40
3.738163871403795
 40
3.738163871403795
 40
3.738163871403795
 10
-35.05510744487052
 20
497.8201501125387
 30
0.0
 10
-35.1363810677009
 20
497.8239853471077
 30
0.0
 10
-35.31087571216903
 20
497.8322195834378
 30
0.0
 10
-35.57723381988831
 20
497.7311160906366
 30
0.0
 10
-35.84411398127322
 20
497.5637015265085
 30
0.0
 10
-36.09981817163106
 20
497.3275468478838
 30
0.0
 10
-36.32996546805465
 20
497.0397123496308
 30
0.0
 10
-36.52172660551913
 20
496.7153419196191
 30
0.0
 10
-36.66418584065281
 20
496.3731576062027
 30
0.0
 10
-36.74908382746582
 20
496.0327425475689
 30
0.0
 10
-36.77208799651304
 20
495.7118521927875
 30
0.0
 10
-36.72912866164081
 20
495.4305906402675
 30
0.0
 10
-36.62477873222811
 20
495.193370792415
 30
0.0
 10
-36.49920295991151
 20
495.0967910346186
 30
0.0
 10
-36.43954841931225
 20
495.0509110075284
 30
0.0
 11
-35.05510744487052
 21
497.8201501125387
 31
0.0
 11
-35.29698785312682
 21
497.8162373484616
 31
0.0
 11
-35.56022043997561
 21
497.7284863787901
 31
0.0
 11
-35.82918672709202
 21
497.5621028838808
 31
0.0
 11
-36.08792790323348
 21
497.3269599029493
 31
0.0
 11
-36.32109162220776
 21
497.0370086925776
 31
0.0
 11
-36.51484372855788
 21
496.7094537391589
 31
0.0
 11
-36.65768762244771
 21
496.3637298575371
 31
0.0
 11
-36.74114844212866
 21
496.0203503082471
 31
0.0
 11
-36.76027341565414
 21
495.699689306328
 31
0.0
 11
-36.71392852776383
 21
495.4207725712311
 31
0.0
 11
-36.60486286851493
 21
495.2001499139366
 31
0.0
 11
-36.43954841931225
 21
495.0509110075284
 31
0.0
  0
SPLINE
  5
16D
330
1F
100
AcDbEntity
  8
0
  6
Continuous
 62
     7
100
AcDbSpline
210
0.0
220
0.0
230
1.0
 70
     8
 71
     3
 72
    19
 73
    15
 74
    13
 42
0.000000001
 43
0.0000000001
 44
0.00000001
 40
0.0
 40
0.0
 40
0.0
 40
0.0
 40
0.2162324808424106
 40
0.4581025455558553
 40
0.738893857429658
 40
1.058789228479007
 40
1.409040105111751
 40
1.775673875655226
 40
2.142307646198772
 40
2.492558522831553
 40
2.812453893880837
 40
3.0932452057546
 40
3.335115270468133
 40
3.551347751310531
 40
3.551347751310531
 40
3.551347751310531
 40
3.551347751310531
 10
-36.36440977900958
 20
495.1807346753762
 30
0.0
 10
-36.29652028199243
 20
495.1533838702566
 30
0.0
 10
-36.15269197254561
 20
495.0954394320457
 30
0.0
 10
-35.8997581732519
 20
495.1330825436196
 30
0.0
 10
-35.64192236361804
 20
495.2469051207506
 30
0.0
 10
-35.38579313165027
 20
495.4382179047476
 30
0.0
 10
-35.14840084726827
 20
495.6911793157648
 30
0.0
 10
-34.94405601294567
 20
495.9906913728898
 30
0.0
 10
-34.78614612929449
 20
496.3170787996131
 30
0.0
 10
-34.68506247159094
 20
496.6489321803299
 30
0.0
 10
-34.64676759008998
 20
496.9663219514944
 30
0.0
 10
-34.67651390169902
 20
497.2465897533197
 30
0.0
 10
-34.76987280792058
 20
497.4846582840063
 30
0.0
 10
-34.89176394645011
 20
497.5805055107048
 30
0.0
 10
-34.9492987199753
 20
497.6257470865102
 30
0.0
 11
-36.36440977900958
 21
495.1807346753762
 31
0.0
 11
-36.15784784648919
 21
495.1167920771724
 31
0.0
 11
-35.91714428629778
 21
495.1405181764121
 31
0.0
 11
-35.65870225618721
 21
495.250297391574
 31
0.0
 11
-35.40013428842616
 21
495.4386472063917
 31
0.0
 11
-35.15906149398375
 21
495.6927329828707
 31
0.0
 11
-34.95191219680318
 21
495.9952383324914
 31
0.0
 11
-34.79280389861689
 21
496.3255485916719
 31
0.0
 11
-34.69257875890902
 21
496.6611534119587
 31
0.0
 11
-34.65806789698697
 21
496.9791817866413
 31
0.0
 11
-34.69162215999782
 21
497.2579610370224
 31
0.0
 11
-34.79095589192212
 21
497.4784920810411
 31
0.0
 11
-34.9492987199753
 21
497.6257470865102
 31
0.0
  0
SPLINE
  5
16E
330
1F
100
AcDbEntity
  8
0
  6
Continuous
 62
     7
100
AcDbSpline
210
0.0
220
0.0
230
1.0
 70
     8
 71
     3
 72
    13
 73
     9
 74
     7
 42
0.000000001
 43
0.0000000001
 44
0.00000001
 40
0.0
 40
0.0
 40
0.0
 40
0.0
 40
0.3663279492268063
 40
0.7524198200710208
 40
1.14876791532378
 40
1.545018546208623
 40
1.930825847704338
 40
2.296706270183581
 40
2.296706270183581
 40
2.296706270183581
 40
2.296706270183581
 10
-31.85702305885192
 20
496.1847592081553
 30
0.0
 10
-31.76482926651132
 20
496.2650990576597
 30
0.0
 10
-31.57546770374867
 20
496.4301132184571
 30
0.0
 10
-31.33125690804481
 20
496.7270428696039
 30
0.0
 10
-31.11450924281495
 20
497.0555617836495
 30
0.0
 10
-30.93841682059846
 20
497.4074424872339
 30
0.0
 10
-30.80349411785118
 20
497.7671553688789
 30
0.0
 10
-30.75542195048083
 20
498.0134369897217
 30
0.0
 10
-30.73202305885198
 20
498.1333133982364
 30
0.0
 11
-31.85702305885192
 21
496.1847592081553
 31
0.0
 11
-31.58741262366473
 21
496.4327640063724
 31
0.0
 11
-31.33890433870771
 21
496.7282476200833
 31
0.0
 11
-31.12132039517488
 21
497.0595315484864
 31
0.0
 11
-30.94326041496878
 21
497.4135219537559
 31
0.0
 11
-30.81176227299704
 21
497.7762277760004
 31
0.0
 11
-30.73202305885198
 21
498.1333133982364
 31
0.0
  0
SPLINE
  5
16F
330
1F
100
AcDbEntity
  8
0
  6
Continuous
 62
     7
100
AcDbSpline
210
0.0
220
0.0
230
1.0
 70
     8
 71
     3
 72
    13
 73
     9
 74
     7
 42
0.000000001
 43
0.0000000001
 44
0.00000001
 40
0.0
 40
0.0
 40
0.0
 40
0.0
 40
0.3663279492268167
 40
0.7524198200710084
 40
1.148767915323827
 40
1.545018546208718
 40
1.93082584770443
 40
2.296706270183619
 40
2.296706270183619
 40
2.296706270183619
 40
2.296706270183619
 10
-32.38561762826737
 20
499.0833018021406
 30
0.0
 10
-32.47781142060798
 20
499.0029619526366
 30
0.0
 10
-32.66717298337061
 20
498.8379477918388
 30
0.0
 10
-32.91138377907455
 20
498.541018140692
 30
0.0
 10
-33.1281314443044
 20
498.2124992266466
 30
0.0
 10
-33.3042238665209
 20
497.8606185230622
 30
0.0
 10
-33.43914656926814
 20
497.5009056414169
 30
0.0
 10
-33.48721873663853
 20
497.2546240205743
 30
0.0
 10
-33.51061762826737
 20
497.1347476120595
 30
0.0
 11
-32.38561762826737
 21
499.0833018021406
 31
0.0
 11
-32.65522806345457
 21
498.8352970039235
 31
0.0
 11
-32.90373634841163
 21
498.5398133902127
 31
0.0
 11
-33.12132029194447
 21
498.2085294618095
 31
0.0
 11
-33.29938027215057
 21
497.85453905654
 31
0.0
 11
-33.4308784141223
 21
497.4918332342955
 31
0.0
 11
-33.51061762826737
 21
497.1347476120595
 31
0.0
  0
SPLINE
  5
170
330
1F
100
AcDbEntity
  8
0
  6
Continuous
 62
     7
100
AcDbSpline
210
0.0
220
0.0
230
1.0
 70
     8
 71
     3
 72
    13
 73
     9
 74
     7
 42
0.000000001
 43
0.0000000001
 44
0.00000001
 40
0.0
 40
0.0
 40
0.0
 40
0.0
 40
0.3659528222561172
 40
0.7516391977201513
 40
1.147581511881535
 40
1.543457796007845
 40
1.928951371105632
 40
2.294600948170705
 40
2.294600948170705
 40
2.294600948170705
 40
2.294600948170705
 10
-32.38735314474184
 20
496.4917007868827
 30
0.0
 10
-32.29525050947711
 20
496.5719541451758
 30
0.0
 10
-32.10607872837093
 20
496.7367884357705
 30
0.0
 10
-31.86206479812151
 20
497.033362429225
 30
0.0
 10
-31.64544343903182
 20
497.3614886892794
 30
0.0
 10
-31.46937408941763
 20
497.7129713105361
 30
0.0
 10
-31.33437559504975
 20
498.0723222512095
 30
0.0
 10
-31.28614597650178
 20
498.3183866395887
 30
0.0
 10
-31.26266824890371
 20
498.4381685220137
 30
0.0
 11
-32.38735314474184
 21
496.4917007868827
 31
0.0
 11
-32.118002126169
 21
496.7394335001608
 31
0.0
 11
-31.86970120247747
 21
497.0345616629049
 31
0.0
 11
-31.65224491798011
 21
497.3654439404078
 31
0.0
 11
-31.47421081605503
 21
497.7190282895792
 31
0.0
 11
-31.34262180134968
 21
498.0813673967583
 31
0.0
 11
-31.26266824890371
 21
498.4381685220137
 31
0.0
  0
SPLINE
  5
171
330
1F
100
AcDbEntity
  8
0
  6
Continuous
 62
     7
100
AcDbSpline
210
0.0
220
0.0
230
1.0
 70
     8
 71
     3
 72
    11
 73
     7
 74
     5
 42
0.000000001
 43
0.0000000001
 44
0.00000001
 40
0.0
 40
0.0
 40
0.0
 40
0.0
 40
0.2116323332617936
 40
0.4060580662570712
 40
0.58707201121645
 40
0.7606548229000452
 40
0.7606548229000452
 40
0.7606548229000452
 40
0.7606548229000452
 10
-72.33715076530734
 20
472.7558898381395
 30
0.0
 10
-72.40471189766447
 20
472.7348158459847
 30
0.0
 10
-72.53434116119809
 20
472.6943812801214
 30
0.0
 10
-72.73088438211326
 20
472.6804295161988
 30
0.0
 10
-72.91508710682106
 20
472.7034212971916
 30
0.0
 10
-73.0222456077578
 20
472.7549107776532
 30
0.0
 10
-73.07470201796903
 20
472.7801160030504
 30
0.0
 11
-72.33715076530734
 21
472.7558898381395
 31
0.0
 11
-72.54154903193356
 21
472.7010300799463
 31
0.0
 11
-72.73544743148882
 21
472.6867200453992
 31
0.0
 11
-72.9145021657289
 21
472.7132803799637
 31
0.0
 11
-73.07470201796903
 21
472.7801160030504
 31
0.0
  0
SPLINE
  5
172
330
1F
100
AcDbEntity
  8
0
  6
Continuous
 62
     7
100
AcDbSpline
210
0.0
220
0.0
230
1.0
 70
     8
 71
     3
 72
     9
 73
     5
 74
     3
 42
0.000000001
 43
0.0000000001
 44
0.00000001
 40
0.0
 40
0.0
 40
0.0
 40
0.0
 40
0.0591007118601042
 40
0.1176040174496108
 40
0.1176040174496108
 40
0.1176040174496108
 40
0.1176040174496108
 10
-36.70543708298905
 20
495.3948873565871
 30
0.0
 10
-36.69086332690635
 20
495.3815625501626
 30
0.0
 10
-36.66186311776439
 20
495.3550476436409
 30
0.0
 10
-36.62849597843562
 20
495.3342967915365
 30
0.0
 10
-36.61189715242486
 20
495.3239740787823
 30
0.0
 11
-36.70543708298905
 21
495.3948873565871
 31
0.0
 11
-36.66061295588983
 21
495.3563686358809
 31
0.0
 11
-36.61189715242486
 21
495.3239740787823
 31
0.0
  0
SPLINE
  5
173
330
1F
100
AcDbEntity
  8
0
  6
Continuous
 62
     7
100
AcDbSpline
210
0.0
220
0.0
230
1.0
 70
     8
 71
     3
 72
     9
 73
     5
 74
     3
 42
0.000000001
 43
0.0000000001
 44
0.00000001
 40
0.0
 40
0.0
 40
0.0
 40
0.0
 40
0.1439275801559551
 40
0.298914978145143
 40
0.298914978145143
 40
0.298914978145143
 40
0.298914978145143
 10
-36.55337469243847
 20
495.1396659009453
 30
0.0
 10
-36.50585895209267
 20
495.1308620037863
 30
0.0
 10
-36.40717622083132
 20
495.1125777119198
 30
0.0
 10
-36.3078337069127
 20
495.1273124850275
 30
0.0
 10
-36.25632461980976
 20
495.1349524742524
 30
0.0
 11
-36.55337469243847
 21
495.1396659009453
 31
0.0
 11
-36.41067450455021
 21
495.1209094347471
 31
0.0
 11
-36.25632461980976
 21
495.1349524742524
 31
0.0
  0
SPLINE
  5
174
330
1F
100
AcDbEntity
  8
0
  6
Continuous
 62
     7
100
AcDbSpline
210
0.0
220
0.0
230
1.0
 70
     8
 71
     3
 72
    17
 73
    13
 74
    11
 42
0.000000001
 43
0.0000000001
 44
0.00000001
 40
0.0
 40
0.0
 40
0.0
 40
0.0
 40
0.2123050734188174
 40
0.4533931501359574
 40
0.7206260226397696
 40
1.007298784765962
 40
1.304266032389259
 40
1.601233280012526
 40
1.887906042138624
 40
2.15513891464246
 40
2.396226991359666
 40
2.60853206477847
 40
2.60853206477847
 40
2.60853206477847
 40
2.60853206477847
 10
-40.05188361431218
 20
493.4835573061371
 30
0.0
 10
-39.98259407649435
 20
493.4996083770498
 30
0.0
 10
-39.83462116303654
 20
493.5338866438959
 30
0.0
 10
-39.62534083300451
 20
493.6580709378475
 30
0.0
 10
-39.42079483096238
 20
493.8272505643577
 30
0.0
 10
-39.2321212590071
 20
494.0406229707485
 30
0.0
 10
-39.06828383976913
 20
494.2851352648523
 30
0.0
 10
-38.93788499741413
 20
494.549000957626
 30
0.0
 10
-38.8468593951682
 20
494.8188895277787
 30
0.0
 10
-38.80205980228143
 20
495.0805263169632
 30
0.0
 10
-38.79863366214676
 20
495.3238537855448
 30
0.0
 10
-38.84262395551949
 20
495.4692354789735
 30
0.0
 10
-38.86322278242804
 20
495.5373116514454
 30
0.0
 11
-40.05188361431218
 21
493.4835573061371
 31
0.0
 11
-39.84758923759913
 21
493.541326259322
 31
0.0
 11
-39.63672097425186
 21
493.6581938612057
 31
0.0
 11
-39.43038011455099
 21
493.8280080467024
 31
0.0
 11
-39.23942951969465
 21
494.0418283964424
 31
0.0
 11
-39.07392209524645
 21
494.288398543862
 31
0.0
 11
-38.94257081946296
 21
494.5547374022661
 31
0.0
 11
-38.85229110796324
 21
494.8268235013789
 31
0.0
 11
-38.80783540258426
 21
495.0903327009095
 31
0.0
 11
-38.81154452896729
 21
495.3313922438416
 31
0.0
 11
-38.86322278242804
 21
495.5373116514454
 31
0.0
  0
SPLINE
  5
175
330
1F
100
AcDbEntity
  8
0
  6
Continuous
 62
     7
100
AcDbSpline
210
0.0
220
0.0
230
1.0
 70
     8
 71
     3
 72
    11
 73
     7
 74
     5
 42
0.000000001
 43
0.0000000001
 44
0.00000001
 40
0.0
 40
0.0
 40
0.0
 40
0.0
 40
0.1969521251955037
 40
0.3731347804085615
 40
0.5316055954178162
 40
0.6796136873789869
 40
0.6796136873789869
 40
0.6796136873789869
 40
0.6796136873789869
 10
-40.11162697096768
 20
493.8249316196335
 30
0.0
 10
-40.10867216714756
 20
493.7590807211958
 30
0.0
 10
-40.10307414244425
 20
493.6343231935157
 30
0.0
 10
-40.05052936677664
 20
493.4636723630163
 30
0.0
 10
-39.96743951462811
 20
493.3215650869325
 30
0.0
 10
-39.88392259765417
 20
493.2610498829087
 30
0.0
 10
-39.84358970471527
 20
493.2318252347465
 30
0.0
 11
-40.11162697096768
 21
493.8249316196335
 31
0.0
 11
-40.09404686972942
 21
493.6287656712777
 31
0.0
 11
-40.04197915727511
 21
493.4604526230713
 31
0.0
 11
-39.95741521952858
 21
493.3264304578024
 31
0.0
 11
-39.84358970471527
 21
493.2318252347465
 31
0.0
  0
SPLINE
  5
176
330
1F
100
AcDbEntity
  8
0
  6
Continuous
 62
     7
100
AcDbSpline
210
0.0
220
0.0
230
1.0
 70
     8
 71
     3
 72
    17
 73
    13
 74
    11
 42
0.000000001
 43
0.0000000001
 44
0.00000001
 40
0.0
 40
0.0
 40
0.0
 40
0.0
 40
0.1787888171979585
 40
0.3752378234564741
 40
0.599735251105467
 40
0.8543097231469008
 40
1.134798296710896
 40
1.433074485282174
 40
1.738762688188659
 40
2.040633844336972
 40
2.327892797224134
 40
2.591520179091768
 40
2.591520179091768
 40
2.591520179091768
 40
2.591520179091768
 10
-38.54118660613506
 20
495.4821021441086
 30
0.0
 10
-38.59681669913572
 20
495.5055410457543
 30
0.0
 10
-38.71357185121194
 20
495.5547340554756
 30
0.0
 10
-38.91922917514427
 20
495.536729458478
 30
0.0
 10
-39.13188628543024
 20
495.4597811339082
 30
0.0
 10
-39.34689007267909
 20
495.3223094032495
 30
0.0
 10
-39.55268439316521
 20
495.1342265357463
 30
0.0
 10
-39.73914161191024
 20
494.9046010495503
 30
0.0
 10
-39.89673815965588
 20
494.6458329608508
 30
0.0
 10
-40.01546844920865
 20
494.371605395924
 30
0.0
 10
-40.0948456175038
 20
494.096606217203
 30
0.0
 10
-40.10619548349551
 20
493.9128624448352
 30
0.0
 10
-40.11162697096768
 20
493.8249316196335
 30
0.0
 11
-38.54118660613506
 21
495.4821021441086
 31
0.0
 11
-38.71078275871481
 21
495.538693565326
 31
0.0
 11
-38.90703398911029
 21
495.5298806077419
 31
0.0
 11
-39.11907867538248
 21
495.4561503866894
 31
0.0
 11
-39.33518077028944
 21
495.321584246543
 31
0.0
 11
-39.54337974294134
 21
495.133629391582
 31
0.0
 11
-39.73215262912947
 21
494.9026889619801
 31
0.0
 11
-39.89105124886007
 21
494.6415443544466
 31
0.0
 11
-40.01128144990248
 21
494.3646492594337
 31
0.0
 11
-40.08618848191229
 21
494.0873287922865
 31
0.0
 11
-40.11162697096768
 21
493.8249316196335
 31
0.0
  0
SPLINE
  5
177
330
1F
100
AcDbEntity
  8
0
  6
Continuous
 62
     7
100
AcDbSpline
210
0.0
220
0.0
230
1.0
 70
     8
 71
     3
 72
    19
 73
    15
 74
    13
 42
0.000000001
 43
0.0000000001
 44
0.00000001
 40
0.0
 40
0.0
 40
0.0
 40
0.0
 40
0.1990104244666561
 40
0.4216165011538182
 40
0.6800439034896619
 40
0.9744608823692656
 40
1.296815671772856
 40
1.634248522954711
 40
1.971681374136544
 40
2.294036163540138
 40
2.588453142419767
 40
2.846880544755706
 40
3.069486621442868
 40
3.268497045909463
 40
3.268497045909463
 40
3.268497045909463
 40
3.268497045909463
 10
-39.84358970471527
 20
493.2318252347465
 30
0.0
 10
-39.78110733589826
 20
493.2066528123832
 30
0.0
 10
-39.64873437854726
 20
493.1533234194525
 30
0.0
 10
-39.41594574932884
 20
493.1879684045084
 30
0.0
 10
-39.17864553499723
 20
493.2927254669949
 30
0.0
 10
-38.94291597608371
 20
493.4688009494373
 30
0.0
 10
-38.72443104144367
 20
493.7016149916023
 30
0.0
 10
-38.53636145911252
 20
493.977272106372
 30
0.0
 10
-38.39102846878433
 20
494.2776640747127
 30
0.0
 10
-38.29799572189659
 20
494.5830866555748
 30
0.0
 10
-38.26275087550016
 20
494.875197595571
 30
0.0
 10
-38.29012801162374
 20
495.1331431833996
 30
0.0
 10
-38.3760512548817
 20
495.352250502198
 30
0.0
 10
-38.48823424830131
 20
495.44046387973
 30
0.0
 10
-38.54118660613506
 20
495.4821021441086
 30
0.0
 11
-39.84358970471527
 21
493.2318252347465
 31
0.0
 11
-39.65347960752838
 21
493.172975409851
 31
0.0
 11
-39.4319471273522
 21
493.1948118197707
 31
0.0
 11
-39.19408897574601
 21
493.2958475576187
 31
0.0
 11
-38.95611491692168
 21
493.4691960597518
 31
0.0
 11
-38.73424261053221
 21
493.7030449159802
 31
0.0
 11
-38.54359192994124
 21
493.981456919171
 31
0.0
 11
-38.39715597408837
 21
494.2854592816025
 31
0.0
 11
-38.30491336763158
 21
494.5943345144328
 31
0.0
 11
-38.27315115842898
 21
494.8870331955568
 31
0.0
 11
-38.30403295801419
 21
495.1436087888279
 31
0.0
 11
-38.3954551537675
 21
495.3465754134114
 31
0.0
 11
-38.54118660613506
 21
495.4821021441086
 31
0.0
  0
SPLINE
  5
178
330
1F
100
AcDbEntity
  8
0
  6
Continuous
 62
     7
100
AcDbSpline
210
0.0
220
0.0
230
1.0
 70
     8
 71
     3
 72
    11
 73
     7
 74
     5
 42
0.000000001
 43
0.0000000001
 44
0.00000001
 40
0.0
 40
0.0
 40
0.0
 40
0.0
 40
0.2116323332618358
 40
0.4060580662570951
 40
0.5870720112164682
 40
0.7606548229000196
 40
0.7606548229000196
 40
0.7606548229000196
 40
0.7606548229000196
 10
-71.80855619589192
 20
476.266306643903
 30
0.0
 10
-71.74099506353478
 20
476.2873806360578
 30
0.0
 10
-71.6113658000012
 20
476.3278152019213
 30
0.0
 10
-71.41482257908595
 20
476.3417669658436
 30
0.0
 10
-71.23061985437823
 20
476.3187751848509
 30
0.0
 10
-71.12346135344146
 20
476.2672857043891
 30
0.0
 10
-71.07100494323024
 20
476.2420804789922
 30
0.0
 11
-71.80855619589192
 21
476.266306643903
 31
0.0
 11
-71.60415792926568
 21
476.3211664020963
 31
0.0
 11
-71.41025952971043
 21
476.3354764366434
 31
0.0
 11
-71.23120479547036
 21
476.3089161020787
 31
0.0
 11
-71.07100494323024
 21
476.2420804789922
 31
0.0
  0
SPLINE
  5
179
330
1F
100
AcDbEntity
  8
0
  6
Continuous
 62
     7
100
AcDbSpline
210
0.0
220
0.0
230
1.0
 70
     8
 71
     3
 72
     9
 73
     5
 74
     3
 42
0.000000001
 43
0.0000000001
 44
0.00000001
 40
0.0
 40
0.0
 40
0.0
 40
0.0
 40
0.2322640217092728
 40
0.4439839219676802
 40
0.4439839219676802
 40
0.4439839219676802
 40
0.4439839219676802
 10
-72.86748085119726
 20
473.0628314168669
 30
0.0
 10
-72.94180294921628
 20
473.0391992131066
 30
0.0
 10
-73.08387324154984
 20
472.9940251309879
 30
0.0
 10
-73.23283415824422
 20
472.9952168408928
 30
0.0
 10
-73.30386824132951
 20
472.9957851337443
 30
0.0
 11
-72.86748085119726
 21
473.0628314168669
 31
0.0
 11
-73.09233291455986
 21
473.0046238067752
 31
0.0
 11
-73.30386824132951
 21
472.9957851337443
 31
0.0
  0
SPLINE
  5
17A
330
1F
100
AcDbEntity
  8
0
  6
Continuous
 62
     7
100
AcDbSpline
210
0.0
220
0.0
230
1.0
 70
     8
 71
     3
 72
    11
 73
     7
 74
     5
 42
0.000000001
 43
0.0000000001
 44
0.00000001
 40
0.0
 40
0.0
 40
0.0
 40
0.0
 40
0.1725011129696077
 40
0.3523006040649211
 40
0.5452876412113202
 40
0.7552217411595413
 40
0.7552217411595413
 40
0.7552217411595413
 40
0.7552217411595413
 10
-71.07100494323024
 20
476.2420804789922
 30
0.0
 10
-71.02330439504514
 20
476.209383284552
 30
0.0
 10
-70.9258851374368
 20
476.1426054930001
 30
0.0
 10
-70.81461550332627
 20
475.9956358183377
 30
0.0
 10
-70.72887269587147
 20
475.8198621786589
 30
0.0
 10
-70.69907939799508
 20
475.6884598659632
 30
0.0
 10
-70.68355619589194
 20
475.6199952842991
 30
0.0
 11
-71.07100494323024
 21
476.2420804789922
 31
0.0
 11
-70.9340240796242
 21
476.1372335542325
 31
0.0
 11
-70.82224210288126
 21
475.9964051209636
 31
0.0
 11
-70.73813245825309
 21
475.8227112380383
 31
0.0
 11
-70.68355619589194
 21
475.6199952842991
 31
0.0
  0
SPLINE
  5
17B
330
1F
100
AcDbEntity
  8
0
  6
Continuous
 62
     7
100
AcDbSpline
210
0.0
220
0.0
230
1.0
 70
     8
 71
     3
 72
    11
 73
     7
 74
     5
 42
0.000000001
 43
0.0000000001
 44
0.00000001
 40
0.0
 40
0.0
 40
0.0
 40
0.0
 40
0.1725011129695731
 40
0.3523006040648866
 40
0.5452876412112344
 40
0.7552217411594518
 40
0.7552217411594518
 40
0.7552217411594518
 40
0.7552217411594518
 10
-73.07470201796903
 20
472.7801160030504
 30
0.0
 10
-73.12240256615414
 20
472.8128131974906
 30
0.0
 10
-73.21982182376246
 20
472.8795909890425
 30
0.0
 10
-73.33109145787296
 20
473.0265606637046
 30
0.0
 10
-73.41683426532782
 20
473.2023343033836
 30
0.0
 10
-73.44662756320416
 20
473.3337366160792
 30
0.0
 10
-73.46215076530731
 20
473.4022011977434
 30
0.0
 11
-73.07470201796903
 21
472.7801160030504
 31
0.0
 11
-73.21168288157507
 21
472.8849629278101
 31
0.0
 11
-73.323464858318
 21
473.025791361079
 31
0.0
 11
-73.40757450294618
 21
473.1994852440042
 31
0.0
 11
-73.46215076530731
 21
473.4022011977434
 31
0.0
  0
SPLINE
  5
17C
330
1F
100
AcDbEntity
  8
0
  6
Continuous
 62
     7
100
AcDbSpline
210
0.0
220
0.0
230
1.0
 70
     8
 71
     3
 72
     9
 73
     5
 74
     3
 42
0.000000001
 43
0.0000000001
 44
0.00000001
 40
0.0
 40
0.0
 40
0.0
 40
0.0
 40
0.2092522910079272
 40
0.4385519700761963
 40
0.4385519700761963
 40
0.4385519700761963
 40
0.4385519700761963
 10
-71.37216880575964
 20
476.3333529270255
 30
0.0
 10
-71.33665923784429
 20
476.2727957421469
 30
0.0
 10
-71.26223813057803
 20
476.1458796909632
 30
0.0
 10
-71.23048736245447
 20
476.0021085298371
 30
0.0
 10
-71.21388628178184
 20
475.9269368630265
 30
0.0
 11
-71.37216880575964
 21
476.3333529270255
 31
0.0
 11
-71.27535469832426
 21
476.1478440314669
 31
0.0
 11
-71.21388628178184
 21
475.9269368630265
 31
0.0
  0
SPLINE
  5
17D
330
1F
100
AcDbEntity
  8
0
  6
Continuous
 62
     7
100
AcDbSpline
210
0.0
220
0.0
230
1.0
 70
     8
 71
     3
 72
    15
 73
    11
 74
     9
 42
0.000000001
 43
0.0000000001
 44
0.00000001
 40
0.0
 40
0.0
 40
0.0
 40
0.0
 40
0.2710347107723537
 40
0.566757124936236
 40
0.8773037987737639
 40
1.190920450436316
 40
1.495485147063872
 40
1.779982707074358
 40
2.036129204773737
 40
2.260408422398786
 40
2.260408422398786
 40
2.260408422398786
 40
2.260408422398786
 10
-64.61287693908156
 20
480.2581138398849
 30
0.0
 10
-64.6186142688225
 20
480.1677110695727
 30
0.0
 10
-64.63061153936178
 20
479.978671025318
 30
0.0
 10
-64.714174893043
 20
479.6962239717518
 30
0.0
 10
-64.83881667476746
 20
479.415393251932
 30
0.0
 10
-65.00376915223104
 20
479.1522012788436
 30
0.0
 10
-65.19791686213918
 20
478.9205918294781
 30
0.0
 10
-65.41146776055756
 20
478.7360770210144
 30
0.0
 10
-65.63146710748033
 20
478.6002093296368
 30
0.0
 10
-65.78814057280395
 20
478.5630711689778
 30
0.0
 10
-65.86128112762117
 20
478.5457338080729
 30
0.0
 11
-64.61287693908156
 21
480.2581138398849
 31
0.0
 11
-64.63969100732065
 21
479.9884087814203
 31
0.0
 11
-64.71856830863219
 21
479.7033998081178
 31
0.0
 11
-64.84490774135882
 21
479.4197140941595
 31
0.0
 11
-65.0113382529938
 21
479.1539015866156
 31
0.0
 11
-65.20815077903023
 21
478.9214699116158
 31
0.0
 11
-65.42386312164236
 21
478.7359785470982
 31
0.0
 11
-65.64589089271281
 21
478.6082495288528
 31
0.0
 11
-65.86128112762117
 21
478.5457338080729
 31
0.0
  0
SPLINE
  5
17E
330
1F
100
AcDbEntity
  8
0
  6
Continuous
 62
     7
100
AcDbSpline
210
0.0
220
0.0
230
1.0
 70
     8
 71
     3
 72
     9
 73
     5
 74
     3
 42
0.000000001
 43
0.0000000001
 44
0.00000001
 40
0.0
 40
0.0
 40
0.0
 40
0.0
 40
0.1651434843035639
 40
0.3481550999339736
 40
0.3481550999339736
 40
0.3481550999339736
 40
0.3481550999339736
 10
-64.67262029573703
 20
480.5994881533812
 30
0.0
 10
-64.65526730499766
 20
480.5469364370632
 30
0.0
 10
-64.61868379065845
 20
480.43614702944
 30
0.0
 10
-64.6148776624922
 20
480.319454547411
 30
0.0
 10
-64.61287693908156
 20
480.2581138398849
 30
0.0
 11
-64.67262029573703
 21
480.5994881533812
 31
0.0
 11
-64.6279361564223
 21
480.4405048258981
 31
0.0
 11
-64.61287693908156
 21
480.2581138398849
 31
0.0
  0
SPLINE
  5
17F
330
1F
100
AcDbEntity
  8
0
  6
Continuous
 62
     7
100
AcDbSpline
210
0.0
220
0.0
230
1.0
 70
     8
 71
     3
 72
    11
 73
     7
 74
     5
 42
0.000000001
 43
0.0000000001
 44
0.00000001
 40
0.0
 40
0.0
 40
0.0
 40
0.0
 40
0.1480080919611562
 40
0.3064789069704628
 40
0.4826615621835685
 40
0.6796136873790143
 40
0.6796136873790143
 40
0.6796136873790143
 40
0.6796136873790143
 10
-64.35058411944405
 20
480.5442786460445
 30
0.0
 10
-64.31025122650514
 20
480.5150539978824
 30
0.0
 10
-64.22673430953114
 20
480.4545387938586
 30
0.0
 10
-64.14364445738265
 20
480.3124315177748
 30
0.0
 10
-64.09109968171508
 20
480.1417806872754
 30
0.0
 10
-64.08550165701178
 20
480.0170231595952
 30
0.0
 10
-64.08254685319164
 20
479.9511722611575
 30
0.0
 11
-64.35058411944405
 21
480.5442786460445
 31
0.0
 11
-64.23675860463071
 21
480.4496734229887
 31
0.0
 11
-64.15219466688418
 21
480.3156512577198
 31
0.0
 11
-64.1001269544299
 21
480.1473382095133
 31
0.0
 11
-64.08254685319164
 21
479.9511722611575
 31
0.0
  0
SPLINE
  5
180
330
1F
100
AcDbEntity
  8
0
  6
Continuous
 62
     7
100
AcDbSpline
210
0.0
220
0.0
230
1.0
 70
     8
 71
     3
 72
    17
 73
    13
 74
    11
 42
0.000000001
 43
0.0000000001
 44
0.00000001
 40
0.0
 40
0.0
 40
0.0
 40
0.0
 40
0.2636273818676881
 40
0.5508863347549033
 40
0.8527574909032742
 40
1.158445693809659
 40
1.456721882380936
 40
1.737210455944997
 40
1.991784927986413
 40
2.216282355635362
 40
2.412731361893889
 40
2.591520179091762
 40
2.591520179091762
 40
2.591520179091762
 40
2.591520179091762
 10
-64.08254685319164
 20
479.9511722611575
 30
0.0
 10
-64.08797834066382
 20
479.863241435956
 30
0.0
 10
-64.09932820665549
 20
479.679497663588
 30
0.0
 10
-64.17870537495061
 20
479.4044984848667
 30
0.0
 10
-64.29743566450341
 20
479.1302709199402
 30
0.0
 10
-64.4550322122491
 20
478.8715028312407
 30
0.0
 10
-64.64148943099411
 20
478.6418773450445
 30
0.0
 10
-64.84728375148016
 20
478.4537944775416
 30
0.0
 10
-65.06228753872904
 20
478.3163227468825
 30
0.0
 10
-65.27494464901505
 20
478.2393744223131
 30
0.0
 10
-65.48060197294734
 20
478.2213698253155
 30
0.0
 10
-65.59735712502354
 20
478.2705628350365
 30
0.0
 10
-65.65298721802424
 20
478.2940017366823
 30
0.0
 11
-64.08254685319164
 21
479.9511722611575
 31
0.0
 11
-64.10798534224702
 21
479.6887750885045
 31
0.0
 11
-64.18289237425681
 21
479.4114546213572
 31
0.0
 11
-64.30312257529923
 21
479.1345595263443
 31
0.0
 11
-64.46202119502982
 21
478.8734149188109
 31
0.0
 11
-64.65079408121795
 21
478.642474489209
 31
0.0
 11
-64.85899305386985
 21
478.4545196342478
 31
0.0
 11
-65.07509514877682
 21
478.3199534941015
 31
0.0
 11
-65.287139835049
 21
478.2462232730491
 31
0.0
 11
-65.4833910654445
 21
478.2374103154651
 31
0.0
 11
-65.65298721802424
 21
478.2940017366823
 31
0.0
  0
SPLINE
  5
181
330
1F
100
AcDbEntity
  8
0
  6
Continuous
 62
     7
100
AcDbSpline
210
0.0
220
0.0
230
1.0
 70
     8
 71
     3
 72
    19
 73
    15
 74
    13
 42
0.000000001
 43
0.0000000001
 44
0.00000001
 40
0.0
 40
0.0
 40
0.0
 40
0.0
 40
0.199010424466672
 40
0.4216165011538455
 40
0.6800439034896697
 40
0.9744608823692983
 40
1.296815671772946
 40
1.63424852295483
 40
1.971681374136686
 40
2.294036163540286
 40
2.588453142419895
 40
2.846880544755748
 40
3.069486621442904
 40
3.268497045909523
 40
3.268497045909523
 40
3.268497045909523
 40
3.268497045909523
 10
-65.65298721802424
 20
478.2940017366823
 30
0.0
 10
-65.70593957585797
 20
478.3356400010609
 30
0.0
 10
-65.81812256927758
 20
478.4238533785932
 30
0.0
 10
-65.90404581253557
 20
478.6429606973912
 30
0.0
 10
-65.93142294865913
 20
478.90090628522
 30
0.0
 10
-65.8961781022627
 20
479.193017225216
 30
0.0
 10
-65.80314535537498
 20
479.4984398060782
 30
0.0
 10
-65.65781236504681
 20
479.798831774419
 30
0.0
 10
-65.46974278271563
 20
480.0744888891886
 30
0.0
 10
-65.2512578480756
 20
480.3073029313538
 30
0.0
 10
-65.01552828916203
 20
480.4833784137961
 30
0.0
 10
-64.77822807483048
 20
480.5881354762827
 30
0.0
 10
-64.54543944561206
 20
480.6227804613383
 30
0.0
 10
-64.41306648826104
 20
480.5694510684077
 30
0.0
 10
-64.35058411944405
 20
480.5442786460445
 30
0.0
 11
-65.65298721802424
 21
478.2940017366823
 31
0.0
 11
-65.79871867039179
 21
478.4295284673796
 31
0.0
 11
-65.89014086614513
 21
478.6324950919631
 31
0.0
 11
-65.92102266573032
 21
478.8890706852341
 31
0.0
 11
-65.88926045652772
 21
479.181769366358
 31
0.0
 11
-65.79701785007093
 21
479.4906445991884
 31
0.0
 11
-65.65058189421806
 21
479.7946469616199
 31
0.0
 11
-65.4599312136271
 21
480.0730589648107
 31
0.0
 11
-65.23805890723762
 21
480.3069078210392
 31
0.0
 11
-65.00008484841328
 21
480.4802563231723
 31
0.0
 11
-64.76222669680709
 21
480.5812920610203
 31
0.0
 11
-64.54069421663092
 21
480.60312847094
 31
0.0
 11
-64.35058411944405
 21
480.5442786460445
 31
0.0
  0
SPLINE
  5
182
330
1F
100
AcDbEntity
  8
0
  6
Continuous
 62
     7
100
AcDbSpline
210
0.0
220
0.0
230
1.0
 70
     8
 71
     3
 72
    11
 73
     7
 74
     5
 42
0.000000001
 43
0.0000000001
 44
0.00000001
 40
0.0
 40
0.0
 40
0.0
 40
0.0
 40
0.2116323332617926
 40
0.4060580662570625
 40
0.5870720112164378
 40
0.7606548228999608
 40
0.7606548228999608
 40
0.7606548228999608
 40
0.7606548228999608
 10
-31.85702305885192
 20
561.7740378073127
 30
0.0
 10
-31.7894619264948
 20
561.7951117994673
 30
0.0
 10
-31.65983266296117
 20
561.8355463653309
 30
0.0
 10
-31.46328944204598
 20
561.849498129253
 30
0.0
 10
-31.27908671733823
 20
561.8265063482606
 30
0.0
 10
-31.17192821640145
 20
561.775016867799
 30
0.0
 10
-31.11947180619023
 20
561.7498116424018
 30
0.0
 11
-31.85702305885192
 21
561.7740378073127
 31
0.0
 11
-31.65262479222569
 21
561.8288975655058
 31
0.0
 11
-31.45872639267043
 21
561.8432076000529
 31
0.0
 11
-31.27967165843035
 21
561.8166472654883
 31
0.0
 11
-31.11947180619023
 21
561.7498116424018
 31
0.0
  0
SPLINE
  5
183
330
1F
100
AcDbEntity
  8
0
  6
Continuous
 62
     7
100
AcDbSpline
210
0.0
220
0.0
230
1.0
 70
     8
 71
     3
 72
    11
 73
     7
 74
     5
 42
0.000000001
 43
0.0000000001
 44
0.00000001
 40
0.0
 40
0.0
 40
0.0
 40
0.0
 40
0.1725011129695675
 40
0.3523006040648897
 40
0.5452876412112857
 40
0.7552217411594482
 40
0.7552217411594482
 40
0.7552217411594482
 40
0.7552217411594482
 10
-33.12316888092903
 20
558.28784716646
 30
0.0
 10
-33.17086942911415
 20
558.3205443609002
 30
0.0
 10
-33.26828868672247
 20
558.3873221524522
 30
0.0
 10
-33.37955832083298
 20
558.5342918271141
 30
0.0
 10
-33.46530112828781
 20
558.7100654667934
 30
0.0
 10
-33.49509442616417
 20
558.8414677794889
 30
0.0
 10
-33.51061762826731
 20
558.909932361153
 30
0.0
 11
-33.12316888092903
 21
558.28784716646
 31
0.0
 11
-33.26014974453507
 21
558.3926940912196
 31
0.0
 11
-33.371931721278
 21
558.5335225244885
 31
0.0
 11
-33.45604136590617
 21
558.7072164074139
 31
0.0
 11
-33.51061762826731
 21
558.909932361153
 31
0.0
  0
SPLINE
  5
184
330
1F
100
AcDbEntity
  8
0
  6
Continuous
 62
     7
100
AcDbSpline
210
0.0
220
0.0
230
1.0
 70
     8
 71
     3
 72
    11
 73
     7
 74
     5
 42
0.000000001
 43
0.0000000001
 44
0.00000001
 40
0.0
 40
0.0
 40
0.0
 40
0.0
 40
0.1725011129697085
 40
0.3523006040649374
 40
0.5452876412113349
 40
0.7552217411594965
 40
0.7552217411594965
 40
0.7552217411594965
 40
0.7552217411594965
 10
-31.11947180619023
 20
561.7498116424018
 30
0.0
 10
-31.07177125800511
 20
561.7171144479614
 30
0.0
 10
-30.97435200039689
 20
561.6503366564095
 30
0.0
 10
-30.86308236628622
 20
561.5033669817474
 30
0.0
 10
-30.77733955883147
 20
561.3275933420684
 30
0.0
 10
-30.74754626095509
 20
561.1961910293727
 30
0.0
 10
-30.73202305885195
 20
561.1277264477087
 30
0.0
 11
-31.11947180619023
 21
561.7498116424018
 31
0.0
 11
-30.98249094258419
 21
561.644964717642
 31
0.0
 11
-30.87070896584126
 21
561.5041362843732
 31
0.0
 11
-30.78659932121309
 21
561.3304424014478
 31
0.0
 11
-30.73202305885195
 21
561.1277264477087
 31
0.0
  0
SPLINE
  5
185
330
1F
100
AcDbEntity
  8
0
  6
Continuous
 62
     7
100
AcDbSpline
210
0.0
220
0.0
230
1.0
 70
     8
 71
     3
 72
    17
 73
    13
 74
    11
 42
0.000000001
 43
0.0000000001
 44
0.00000001
 40
0.0
 40
0.0
 40
0.0
 40
0.0
 40
0.2636273818676336
 40
0.5508863347548452
 40
0.8527574909032103
 40
1.158445693809595
 40
1.456721882380881
 40
1.737210455944926
 40
1.991784927986251
 40
2.216282355635219
 40
2.412731361893748
 40
2.591520179091666
 40
2.591520179091666
 40
2.591520179091666
 40
2.591520179091666
 10
-40.11162697096762
 20
554.5787553842947
 30
0.0
 10
-40.10619548349545
 20
554.6666862094964
 30
0.0
 10
-40.09484561750373
 20
554.8504299818641
 30
0.0
 10
-40.01546844920865
 20
555.1254291605854
 30
0.0
 10
-39.89673815965588
 20
555.399656725512
 30
0.0
 10
-39.73914161191019
 20
555.6584248142116
 30
0.0
 10
-39.55268439316514
 20
555.8880503004075
 30
0.0
 10
-39.34689007267911
 20
556.0761331679107
 30
0.0
 10
-39.13188628543016
 20
556.2136048985693
 30
0.0
 10
-38.91922917514422
 20
556.2905532231391
 30
0.0
 10
-38.71357185121192
 20
556.3085578201365
 30
0.0
 10
-38.59681669913569
 20
556.2593648104158
 30
0.0
 10
-38.541186606135
 20
556.2359259087698
 30
0.0
 11
-40.11162697096762
 21
554.5787553842947
 31
0.0
 11
-40.08618848191223
 21
554.8411525569477
 31
0.0
 11
-40.01128144990245
 21
555.118473024095
 31
0.0
 11
-39.89105124886004
 21
555.3953681191078
 31
0.0
 11
-39.73215262912944
 21
555.6565127266413
 31
0.0
 11
-39.5433797429413
 21
555.8874531562432
 31
0.0
 11
-39.33518077028938
 21
556.0754080112042
 31
0.0
 11
-39.11907867538244
 21
556.2099741513506
 31
0.0
 11
-38.90703398911026
 21
556.283704372403
 31
0.0
 11
-38.71078275871476
 21
556.292517329987
 31
0.0
 11
-38.541186606135
 21
556.2359259087698
 31
0.0
  0
SPLINE
  5
186
330
1F
100
AcDbEntity
  8
0
  6
Continuous
 62
     7
100
AcDbSpline
210
0.0
220
0.0
230
1.0
 70
     8
 71
     3
 72
    11
 73
     7
 74
     5
 42
0.000000001
 43
0.0000000001
 44
0.00000001
 40
0.0
 40
0.0
 40
0.0
 40
0.0
 40
0.1480080919612652
 40
0.3064789069704351
 40
0.4826615621835408
 40
0.6796136873790426
 40
0.6796136873790426
 40
0.6796136873790426
 40
0.6796136873790426
 10
-39.84358970471521
 20
553.9856489994077
 30
0.0
 10
-39.88392259765413
 20
554.0148736475699
 30
0.0
 10
-39.967439514628
 20
554.0753888515937
 30
0.0
 10
-40.0505293667767
 20
554.2174961276777
 30
0.0
 10
-40.10307414244419
 20
554.3881469581768
 30
0.0
 10
-40.10867216714751
 20
554.5129044858571
 30
0.0
 10
-40.11162697096762
 20
554.5787553842947
 30
0.0
 11
-39.84358970471521
 21
553.9856489994077
 31
0.0
 11
-39.95741521952854
 21
554.0802542224636
 31
0.0
 11
-40.04197915727509
 21
554.2142763877324
 31
0.0
 11
-40.09404686972938
 21
554.3825894359388
 31
0.0
 11
-40.11162697096762
 21
554.5787553842947
 31
0.0
  0
SPLINE
  5
187
330
1F
100
AcDbEntity
  8
0
  6
Continuous
 62
     7
100
AcDbSpline
210
0.0
220
0.0
230
1.0
 70
     8
 71
     3
 72
    17
 73
    13
 74
    11
 42
0.000000001
 43
0.0000000001
 44
0.00000001
 40
0.0
 40
0.0
 40
0.0
 40
0.0
 40
0.2123050734187002
 40
0.4533931501359632
 40
0.7206260226396879
 40
1.007298784765838
 40
1.304266032389149
 40
1.601233280012438
 40
1.887906042138683
 40
2.155138914642361
 40
2.396226991359535
 40
2.608532064778392
 40
2.608532064778392
 40
2.608532064778392
 40
2.608532064778392
 10
-38.86322278242801
 20
556.2911354161065
 30
0.0
 10
-38.84262395551946
 20
556.2230592436347
 30
0.0
 10
-38.79863366214665
 20
556.0776775502059
 30
0.0
 10
-38.80205980228141
 20
555.8343500816243
 30
0.0
 10
-38.8468593951682
 20
555.57271329244
 30
0.0
 10
-38.93788499741411
 20
555.3028247222873
 30
0.0
 10
-39.06828383976904
 20
555.0389590295133
 30
0.0
 10
-39.23212125900707
 20
554.7944467354096
 30
0.0
 10
-39.42079483096224
 20
554.5810743290187
 30
0.0
 10
-39.62534083300459
 20
554.4118947025089
 30
0.0
 10
-39.83462116303652
 20
554.2877104085574
 30
0.0
 10
-39.98259407649434
 20
554.2534321417111
 30
0.0
 10
-40.05188361431215
 20
554.2373810707982
 30
0.0
 11
-38.86322278242801
 21
556.2911354161065
 31
0.0
 11
-38.81154452896723
 21
556.0852160085028
 31
0.0
 11
-38.80783540258423
 21
555.8441564655707
 31
0.0
 11
-38.85229110796322
 21
555.5806472660402
 31
0.0
 11
-38.94257081946293
 21
555.3085611669273
 31
0.0
 11
-39.07392209524641
 21
555.0422223085232
 31
0.0
 11
-39.2394295196946
 21
554.7956521611036
 31
0.0
 11
-39.43038011455095
 21
554.5818318113635
 31
0.0
 11
-39.63672097425183
 21
554.4120176258671
 31
0.0
 11
-39.84758923759911
 21
554.2951500239833
 31
0.0
 11
-40.05188361431215
 21
554.2373810707982
 31
0.0
  0
SPLINE
  5
188
330
1F
100
AcDbEntity
  8
0
  6
Continuous
 62
     7
100
AcDbSpline
210
0.0
220
0.0
230
1.0
 70
     8
 71
     3
 72
    19
 73
    15
 74
    13
 42
0.000000001
 43
0.0000000001
 44
0.00000001
 40
0.0
 40
0.0
 40
0.0
 40
0.0
 40
0.1990104244665634
 40
0.421616501153685
 40
0.6800439034896237
 40
0.9744608823691966
 40
1.296815671772792
 40
1.634248522954724
 40
1.971681374136525
 40
2.294036163540161
 40
2.58845314241977
 40
2.846880544755585
 40
3.06948662144277
 40
3.268497045909439
 40
3.268497045909439
 40
3.268497045909439
 40
3.268497045909439
 10
-38.541186606135
 20
556.2359259087698
 30
0.0
 10
-38.48823424830127
 20
556.1942876443911
 30
0.0
 10
-38.3760512548817
 20
556.1060742668592
 30
0.0
 10
-38.29012801162368
 20
555.886966948061
 30
0.0
 10
-38.26275087550013
 20
555.6290213602322
 30
0.0
 10
-38.29799572189656
 20
555.3369104202361
 30
0.0
 10
-38.39102846878433
 20
555.0314878393739
 30
0.0
 10
-38.53636145911244
 20
554.7310958710334
 30
0.0
 10
-38.72443104144365
 20
554.4554387562634
 30
0.0
 10
-38.94291597608366
 20
554.2226247140985
 30
0.0
 10
-39.17864553499717
 20
554.0465492316562
 30
0.0
 10
-39.41594574932881
 20
553.9417921691695
 30
0.0
 10
-39.64873437854724
 20
553.9071471841137
 30
0.0
 10
-39.78110733589818
 20
553.9604765770443
 30
0.0
 10
-39.84358970471521
 20
553.9856489994077
 30
0.0
 11
-38.541186606135
 21
556.2359259087698
 31
0.0
 11
-38.39545515376749
 21
556.1003991780726
 31
0.0
 11
-38.30403295801415
 21
555.8974325534891
 31
0.0
 11
-38.27315115842894
 21
555.640856960218
 31
0.0
 11
-38.30491336763154
 21
555.3481582790942
 31
0.0
 11
-38.39715597408834
 21
555.0392830462638
 31
0.0
 11
-38.54359192994121
 21
554.7352806838322
 31
0.0
 11
-38.73424261053216
 21
554.4568686806415
 31
0.0
 11
-38.95611491692163
 21
554.223019824413
 31
0.0
 11
-39.19408897574597
 21
554.0496713222799
 31
0.0
 11
-39.43194712735216
 21
553.9486355844319
 31
0.0
 11
-39.65347960752833
 21
553.9267991745121
 31
0.0
 11
-39.84358970471521
 21
553.9856489994077
 31
0.0
  0
SPLINE
  5
189
330
1F
100
AcDbEntity
  8
0
  6
Continuous
 62
     7
100
AcDbSpline
210
0.0
220
0.0
230
1.0
 70
     8
 71
     3
 72
    11
 73
     7
 74
     5
 42
0.000000001
 43
0.0000000001
 44
0.00000001
 40
0.0
 40
0.0
 40
0.0
 40
0.0
 40
0.2116323332618221
 40
0.4060580662571038
 40
0.5870720112165064
 40
0.76065482290006
 40
0.76065482290006
 40
0.76065482290006
 40
0.76065482290006
 10
-32.38561762826734
 20
558.2636210015492
 30
0.0
 10
-32.45317876062445
 20
558.2425470093942
 30
0.0
 10
-32.58280802415809
 20
558.202112443531
 30
0.0
 10
-32.7793512450733
 20
558.1881606796086
 30
0.0
 10
-32.96355396978105
 20
558.2111524606012
 30
0.0
 10
-33.07071247071782
 20
558.262641941063
 30
0.0
 10
-33.12316888092903
 20
558.28784716646
 30
0.0
 11
-32.38561762826734
 21
558.2636210015492
 31
0.0
 11
-32.59001589489357
 21
558.2087612433559
 31
0.0
 11
-32.78391429444883
 21
558.1944512088087
 31
0.0
 11
-32.96296902868892
 21
558.2210115433734
 31
0.0
 11
-33.12316888092903
 21
558.28784716646
 31
0.0
  0
SPLINE
  5
18A
330
1F
100
AcDbEntity
  8
0
  6
Continuous
 62
     7
100
AcDbSpline
210
0.0
220
0.0
230
1.0
 70
     8
 71
     3
 72
     9
 73
     5
 74
     3
 42
0.000000001
 43
0.0000000001
 44
0.00000001
 40
0.0
 40
0.0
 40
0.0
 40
0.0
 40
0.2322640217092517
 40
0.4439839219676709
 40
0.4439839219676709
 40
0.4439839219676709
 40
0.4439839219676709
 10
-32.91594771415726
 20
558.5705625802765
 30
0.0
 10
-32.99026981217632
 20
558.5469303765163
 30
0.0
 10
-33.13234010450988
 20
558.5017562943978
 30
0.0
 10
-33.28130102120421
 20
558.5029480043024
 30
0.0
 10
-33.35233510428952
 20
558.503516297154
 30
0.0
 11
-32.91594771415726
 21
558.5705625802765
 31
0.0
 11
-33.14079977751986
 21
558.5123549701849
 31
0.0
 11
-33.35233510428952
 21
558.503516297154
 31
0.0
  0
SPLINE
  5
18B
330
1F
100
AcDbEntity
  8
0
  6
Continuous
 62
     7
100
AcDbSpline
210
0.0
220
0.0
230
1.0
 70
     8
 71
     3
 72
     9
 73
     5
 74
     3
 42
0.000000001
 43
0.0000000001
 44
0.00000001
 40
0.0
 40
0.0
 40
0.0
 40
0.0
 40
0.209252291007919
 40
0.4385519700761342
 40
0.4385519700761342
 40
0.4385519700761342
 40
0.4385519700761342
 10
-31.42063566871963
 20
561.8410840904351
 30
0.0
 10
-31.38512610080429
 20
561.7805269055565
 30
0.0
 10
-31.31070499353802
 20
561.6536108543728
 30
0.0
 10
-31.27895422541448
 20
561.5098396932466
 30
0.0
 10
-31.26235314474184
 20
561.4346680264362
 30
0.0
 11
-31.42063566871963
 21
561.8410840904351
 31
0.0
 11
-31.32382156128427
 21
561.6555751948764
 31
0.0
 11
-31.26235314474184
 21
561.4346680264362
 31
0.0
  0
SPLINE
  5
18C
330
1F
100
AcDbEntity
  8
0
  6
Continuous
 62
     7
100
AcDbSpline
210
0.0
220
0.0
230
1.0
 70
     8
 71
     3
 72
     9
 73
     5
 74
     3
 42
0.000000001
 43
0.0000000001
 44
0.00000001
 40
0.0
 40
0.0
 40
0.0
 40
0.0
 40
0.183011615630523
 40
0.3481550999341416
 40
0.3481550999341416
 40
0.3481550999341416
 40
0.3481550999341416
 10
-64.6128769390815
 20
541.0119376045459
 30
0.0
 10
-64.61487766249215
 20
541.0732783120718
 30
0.0
 10
-64.6186837906584
 20
541.1899707941013
 30
0.0
 10
-64.6552673049976
 20
541.3007602017243
 30
0.0
 10
-64.67262029573698
 20
541.3533119180423
 30
0.0
 11
-64.6128769390815
 21
541.0119376045459
 31
0.0
 11
-64.62793615642224
 21
541.1943285905593
 31
0.0
 11
-64.67262029573698
 21
541.3533119180423
 31
0.0
  0
SPLINE
  5
18D
330
1F
100
AcDbEntity
  8
0
  6
Continuous
 62
     7
100
AcDbSpline
210
0.0
220
0.0
230
1.0
 70
     8
 71
     3
 72
    11
 73
     7
 74
     5
 42
0.000000001
 43
0.0000000001
 44
0.00000001
 40
0.0
 40
0.0
 40
0.0
 40
0.0
 40
0.1969521251953892
 40
0.3731347804086036
 40
0.5316055954177659
 40
0.679613687379031
 40
0.679613687379031
 40
0.679613687379031
 40
0.679613687379031
 10
-64.08254685319159
 20
540.7049960258186
 30
0.0
 10
-64.08550165701173
 20
540.7708469242563
 30
0.0
 10
-64.09109968171506
 20
540.8956044519366
 30
0.0
 10
-64.14364445738249
 20
541.0662552824356
 30
0.0
 10
-64.2267343095312
 20
541.2083625585196
 30
0.0
 10
-64.31025122650509
 20
541.2688777625433
 30
0.0
 10
-64.350584119444
 20
541.2981024107056
 30
0.0
 11
-64.08254685319159
 21
540.7049960258186
 31
0.0
 11
-64.10012695442984
 21
540.9011619741743
 31
0.0
 11
-64.15219466688413
 21
541.0694750223809
 31
0.0
 11
-64.23675860463065
 21
541.2034971876496
 31
0.0
 11
-64.350584119444
 21
541.2981024107056
 31
0.0
  0
SPLINE
  5
18E
330
1F
100
AcDbEntity
  8
0
  6
Continuous
 62
     7
100
AcDbSpline
210
0.0
220
0.0
230
1.0
 70
     8
 71
     3
 72
    15
 73
    11
 74
     9
 42
0.000000001
 43
0.0000000001
 44
0.00000001
 40
0.0
 40
0.0
 40
0.0
 40
0.0
 40
0.2242792176250645
 40
0.4804257153243298
 40
0.764923275334816
 40
1.069487971962416
 40
1.383104623624919
 40
1.693651297462447
 40
1.989373711626439
 40
2.260408422398736
 40
2.260408422398736
 40
2.260408422398736
 40
2.260408422398736
 10
-65.86128112762111
 20
539.299557572734
 30
0.0
 10
-65.7881405728039
 20
539.3168949336391
 30
0.0
 10
-65.63146710748035
 20
539.354033094298
 30
0.0
 10
-65.41146776055741
 20
539.4899007856752
 30
0.0
 10
-65.19791686213915
 20
539.6744155941392
 30
0.0
 10
-65.00376915223099
 20
539.9060250435044
 30
0.0
 10
-64.8388166747674
 20
540.169217016593
 30
0.0
 10
-64.71417489304291
 20
540.4500477364127
 30
0.0
 10
-64.63061153936178
 20
540.7324947899792
 30
0.0
 10
-64.61861426882241
 20
540.9215348342333
 30
0.0
 10
-64.6128769390815
 20
541.0119376045459
 30
0.0
 11
-65.86128112762111
 21
539.299557572734
 31
0.0
 11
-65.64589089271276
 21
539.3620732935138
 31
0.0
 11
-65.4238631216423
 21
539.4898023117591
 31
0.0
 11
-65.20815077903018
 21
539.6752936762766
 31
0.0
 11
-65.01133825299374
 21
539.9077253512766
 31
0.0
 11
-64.84490774135877
 21
540.1735378588204
 31
0.0
 11
-64.71856830863213
 21
540.4572235727787
 31
0.0
 11
-64.6396910073206
 21
540.7422325460814
 31
0.0
 11
-64.6128769390815
 21
541.0119376045459
 31
0.0
  0
SPLINE
  5
18F
330
1F
100
AcDbEntity
  8
0
  6
Continuous
 62
     7
100
AcDbSpline
210
0.0
220
0.0
230
1.0
 70
     8
 71
     3
 72
    17
 73
    13
 74
    11
 42
0.000000001
 43
0.0000000001
 44
0.00000001
 40
0.0
 40
0.0
 40
0.0
 40
0.0
 40
0.1787888171979045
 40
0.37523782345642
 40
0.5997352511053637
 40
0.8543097231467796
 40
1.134798296710868
 40
1.433074485282146
 40
1.738762688188538
 40
2.040633844337013
 40
2.327892797224118
 40
2.591520179091751
 40
2.591520179091751
 40
2.591520179091751
 40
2.591520179091751
 10
-65.65298721802421
 20
539.0478255013434
 30
0.0
 10
-65.59735712502352
 20
539.0243865996973
 30
0.0
 10
-65.48060197294731
 20
538.9751935899767
 30
0.0
 10
-65.27494464901503
 20
538.9931981869742
 30
0.0
 10
-65.062287538729
 20
539.0701465115436
 30
0.0
 10
-64.8472837514801
 20
539.2076182422027
 30
0.0
 10
-64.6414894309941
 20
539.3957011097053
 30
0.0
 10
-64.45503221224905
 20
539.6253265959019
 30
0.0
 10
-64.29743566450331
 20
539.8840946846012
 30
0.0
 10
-64.17870537495062
 20
540.1583222495282
 30
0.0
 10
-64.09932820665544
 20
540.4333214282489
 30
0.0
 10
-64.08797834066372
 20
540.6170652006169
 30
0.0
 10
-64.08254685319159
 20
540.7049960258186
 30
0.0
 11
-65.65298721802421
 21
539.0478255013434
 31
0.0
 11
-65.48339106544445
 21
538.9912340801261
 31
0.0
 11
-65.28713983504898
 21
539.0000470377101
 31
0.0
 11
-65.07509514877678
 21
539.0737772587624
 31
0.0
 11
-64.85899305386981
 21
539.2083433989089
 31
0.0
 11
-64.65079408121792
 21
539.3962982538701
 31
0.0
 11
-64.46202119502979
 21
539.627238683472
 31
0.0
 11
-64.30312257529918
 21
539.8883832910054
 31
0.0
 11
-64.18289237425677
 21
540.1652783860184
 31
0.0
 11
-64.10798534224698
 21
540.4425988531656
 31
0.0
 11
-64.08254685319159
 21
540.7049960258186
 31
0.0
  0
SPLINE
  5
190
330
1F
100
AcDbEntity
  8
0
  6
Continuous
 62
     7
100
AcDbSpline
210
0.0
220
0.0
230
1.0
 70
     8
 71
     3
 72
    19
 73
    15
 74
    13
 42
0.000000001
 43
0.0000000001
 44
0.00000001
 40
0.0
 40
0.0
 40
0.0
 40
0.0
 40
0.1990104244666493
 40
0.4216165011537973
 40
0.6800439034896947
 40
0.9744608823693042
 40
1.296815671772853
 40
1.634248522954661
 40
1.971681374136597
 40
2.294036163540194
 40
2.588453142419881
 40
2.846880544755706
 40
3.069486621442822
 40
3.268497045909484
 40
3.268497045909484
 40
3.268497045909484
 40
3.268497045909484
 10
-64.350584119444
 20
541.2981024107056
 30
0.0
 10
-64.41306648826101
 20
541.3232748330688
 30
0.0
 10
-64.54543944561198
 20
541.3766042259995
 30
0.0
 10
-64.77822807483047
 20
541.341959240944
 30
0.0
 10
-65.01552828916194
 20
541.237202178457
 30
0.0
 10
-65.25125784807554
 20
541.0611266960149
 30
0.0
 10
-65.46974278271554
 20
540.8283126538496
 30
0.0
 10
-65.65781236504677
 20
540.5526555390801
 30
0.0
 10
-65.80314535537485
 20
540.2522635707392
 30
0.0
 10
-65.89617810226268
 20
539.9468409898773
 30
0.0
 10
-65.93142294865909
 20
539.6547300498809
 30
0.0
 10
-65.90404581253554
 20
539.3967844620524
 30
0.0
 10
-65.81812256927752
 20
539.1776771432543
 30
0.0
 10
-65.70593957585793
 20
539.0894637657218
 30
0.0
 10
-65.65298721802421
 20
539.0478255013434
 30
0.0
 11
-64.350584119444
 21
541.2981024107056
 31
0.0
 11
-64.54069421663088
 21
541.356952235601
 31
0.0
 11
-64.76222669680703
 21
541.3351158256814
 31
0.0
 11
-65.00008484841322
 21
541.2340800878333
 31
0.0
 11
-65.23805890723756
 21
541.0607315857002
 31
0.0
 11
-65.45993121362703
 21
540.8268827294718
 31
0.0
 11
-65.65058189421799
 21
540.548470726281
 31
0.0
 11
-65.79701785007086
 21
540.2444683638495
 31
0.0
 11
-65.88926045652767
 21
539.9355931310191
 31
0.0
 11
-65.92102266573028
 21
539.6428944498952
 31
0.0
 11
-65.89014086614507
 21
539.3863188566241
 31
0.0
 11
-65.79871867039175
 21
539.1833522320406
 31
0.0
 11
-65.65298721802421
 21
539.0478255013434
 31
0.0
  0
SPLINE
  5
191
330
1F
100
AcDbEntity
  8
0
  6
Continuous
 62
     7
100
AcDbSpline
210
0.0
220
0.0
230
1.0
 70
     8
 71
     3
 72
     9
 73
     5
 74
     3
 42
0.000000001
 43
0.0000000001
 44
0.00000001
 40
0.0
 40
0.0
 40
0.0
 40
0.0
 40
0.1549873979892454
 40
0.2989149781452282
 40
0.2989149781452282
 40
0.2989149781452282
 40
0.2989149781452282
 10
-67.73622411458545
 20
539.2782796922709
 30
0.0
 10
-67.75525878767282
 20
539.3267486174705
 30
0.0
 10
-67.79196984723114
 20
539.4202277419652
 30
0.0
 10
-67.85698277067341
 20
539.4966863357511
 30
0.0
 10
-67.88828650513607
 20
539.5335011479128
 30
0.0
 11
-67.73622411458545
 21
539.2782796922709
 31
0.0
 11
-67.80093687838068
 21
539.4191106266566
 31
0.0
 11
-67.88828650513607
 21
539.5335011479128
 31
0.0
  0
SPLINE
  5
192
330
1F
100
AcDbEntity
  8
0
  6
Continuous
 62
     7
100
AcDbSpline
210
0.0
220
0.0
230
1.0
 70
     8
 71
     3
 72
    19
 73
    15
 74
    13
 42
0.000000001
 43
0.0000000001
 44
0.00000001
 40
0.0
 40
0.0
 40
0.0
 40
0.0
 40
0.2412592956470611
 40
0.517875558968846
 40
0.8338709222771947
 40
1.18414237453628
 40
1.557801752283033
 40
1.940735035783581
 40
2.317668374520324
 40
2.674071729466223
 40
2.998164063902677
 40
3.283334717087742
 40
3.531319622060984
 40
3.755490832603013
 40
3.755490832603013
 40
3.755490832603013
 40
3.755490832603013
 10
-69.15631979570404
 20
536.7129801788631
 30
0.0
 10
-69.0753623100838
 20
536.706925943604
 30
0.0
 10
-68.9015828807991
 20
536.6939302356989
 30
0.0
 10
-68.63381967162158
 20
536.7904192681815
 30
0.0
 10
-68.36507933907204
 20
536.9545473322678
 30
0.0
 10
-68.10677065556828
 20
537.1889329725007
 30
0.0
 10
-67.87366745106694
 20
537.4763851255618
 30
0.0
 10
-67.67886803373031
 20
537.8016205059512
 30
0.0
 10
-67.53360710557351
 20
538.1456344462545
 30
0.0
 10
-67.44640445584122
 20
538.4884916313929
 30
0.0
 10
-67.42176946017067
 20
538.8120758975
 30
0.0
 10
-67.46390776575873
 20
539.0958736090686
 30
0.0
 10
-67.56821899470944
 20
539.3353721613587
 30
0.0
 10
-67.69461490129729
 20
539.4327726482622
 30
0.0
 10
-67.75462540484699
 20
539.4790166379237
 30
0.0
 11
-69.15631979570404
 21
536.7129801788631
 31
0.0
 11
-68.91507181792366
 21
536.710643268449
 31
0.0
 11
-68.65112436268721
 21
536.7933977055766
 31
0.0
 11
-68.38033819321988
 21
536.9562716439992
 31
0.0
 11
-68.11898517840032
 21
537.1894768964421
 31
0.0
 11
-67.88277055572378
 21
537.4790006094133
 31
0.0
 11
-67.68588838166835
 21
537.8074443752462
 31
0.0
 11
-67.54017008847818
 21
538.1550719338574
 31
0.0
 11
-67.45437141902585
 21
538.5009938017063
 31
0.0
 11
-67.43364886009674
 21
538.8244229528029
 31
0.0
 11
-67.47924688284922
 21
539.1059244988114
 31
0.0
 11
-67.58842620917163
 21
539.3285820616669
 31
0.0
 11
-67.75462540484699
 21
539.4790166379237
 31
0.0
  0
SPLINE
  5
193
330
1F
100
AcDbEntity
  8
0
  6
Continuous
 62
     7
100
AcDbSpline
210
0.0
220
0.0
230
1.0
 70
     8
 71
     3
 72
     9
 73
     5
 74
     3
 42
0.000000001
 43
0.0000000001
 44
0.00000001
 40
0.0
 40
0.0
 40
0.0
 40
0.0
 40
0.0585033055895761
 40
0.1176040174497353
 40
0.1176040174497353
 40
0.1176040174497353
 40
0.1176040174497353
 10
-68.07725141856497
 20
539.4924323734818
 30
0.0
 10
-68.09447085110548
 20
539.5016828094999
 30
0.0
 10
-68.12908556070076
 20
539.5202781242239
 30
0.0
 10
-68.16652284487324
 20
539.5322155507438
 30
0.0
 10
-68.18533657776482
 20
539.5382145746057
 30
0.0
 11
-68.07725141856497
 21
539.4924323734818
 31
0.0
 11
-68.12960821336812
 21
539.5185360681398
 31
0.0
 11
-68.18533657776482
 21
539.5382145746057
 31
0.0
  0
SPLINE
  5
194
330
1F
100
AcDbEntity
  8
0
  6
Continuous
 62
     7
100
AcDbSpline
210
0.0
220
0.0
230
1.0
 70
     8
 71
     3
 72
     9
 73
     5
 74
     3
 42
0.000000001
 43
0.0000000001
 44
0.00000001
 40
0.0
 40
0.0
 40
0.0
 40
0.0
 40
0.0591007118601042
 40
0.117604017449717
 40
0.117604017449717
 40
0.117604017449717
 40
0.117604017449717
 10
-69.58590240816345
 20
537.1183332401529
 30
0.0
 10
-69.57132865208074
 20
537.1050084337284
 30
0.0
 10
-69.54232844293873
 20
537.0784935272065
 30
0.0
 10
-69.50896130361004
 20
537.0577426751022
 30
0.0
 10
-69.49236247759924
 20
537.0474199623479
 30
0.0
 11
-69.58590240816345
 21
537.1183332401529
 31
0.0
 11
-69.54107828106423
 21
537.0798145194466
 31
0.0
 11
-69.49236247759924
 21
537.0474199623479
 31
0.0
  0
SPLINE
  5
195
330
1F
100
AcDbEntity
  8
0
  6
Continuous
 62
     7
100
AcDbSpline
210
0.0
220
0.0
230
1.0
 70
     8
 71
     3
 72
    19
 73
    15
 74
    13
 42
0.000000001
 43
0.0000000001
 44
0.00000001
 40
0.0
 40
0.0
 40
0.0
 40
0.0
 40
0.2391952226766744
 40
0.5067506047585202
 40
0.8173604626828455
 40
1.171227023291797
 40
1.558672682896792
 40
1.964241012589165
 40
2.369809342281508
 40
2.757255001886485
 40
3.111121562495572
 40
3.421731420419993
 40
3.689286802501737
 40
3.928482025178431
 40
3.928482025178431
 40
3.928482025178431
 40
3.928482025178431
 10
-67.75462540484699
 20
539.4790166379237
 30
0.0
 10
-67.82972440613099
 20
539.5092719533856
 30
0.0
 10
-67.98882651837218
 20
539.5733697853024
 30
0.0
 10
-68.26862054443288
 20
539.531729171705
 30
0.0
 10
-68.5538371478032
 20
539.4058192417144
 30
0.0
 10
-68.83716594384333
 20
539.1941900556451
 30
0.0
 10
-69.09976802788123
 20
538.9143654861584
 30
0.0
 10
-69.32581319819231
 20
538.5830468392259
 30
0.0
 10
-69.50049227294096
 20
538.221998801326
 30
0.0
 10
-69.61231047839891
 20
537.8549043541364
 30
0.0
 10
-69.65467207337254
 20
537.5038094747472
 30
0.0
 10
-69.62176686111628
 20
537.1937787209263
 30
0.0
 10
-69.51849373760993
 20
536.9304285743891
 30
0.0
 10
-69.38365840560049
 20
536.8244028821349
 30
0.0
 10
-69.32001374448667
 20
536.774356891094
 30
0.0
 11
-67.75462540484699
 21
539.4790166379237
 31
0.0
 11
-67.98312311781197
 21
539.5497496005383
 31
0.0
 11
-68.24938811802372
 21
539.5235039155388
 31
0.0
 11
-68.53527531947347
 21
539.4020667306252
 31
0.0
 11
-68.8213018324835
 21
539.1937151655615
 31
0.0
 11
-69.08797527766315
 21
538.9126468287484
 31
0.0
 11
-69.31712273029652
 21
538.578017017221
 31
0.0
 11
-69.49312748492736
 21
538.2126295623755
 31
0.0
 11
-69.60399600230332
 21
537.8413852921467
 31
0.0
 11
-69.642171734518
 21
537.4895839927188
 31
0.0
 11
-69.60505418693963
 21
537.181199866191
 31
0.0
 11
-69.49517174012072
 21
536.937249596259
 31
0.0
 11
-69.32001374448667
 21
536.774356891094
 31
0.0
  0
SPLINE
  5
196
330
1F
100
AcDbEntity
  8
0
  6
Continuous
 62
     7
100
AcDbSpline
210
0.0
220
0.0
230
1.0
 70
     8
 71
     3
 72
     9
 73
     5
 74
     3
 42
0.000000001
 43
0.0000000001
 44
0.00000001
 40
0.0
 40
0.0
 40
0.0
 40
0.0
 40
0.0240744598118512
 40
0.0483625429171167
 40
0.0483625429171167
 40
0.0483625429171167
 40
0.0483625429171167
 10
-69.43384001761284
 20
536.8631117845109
 30
0.0
 10
-69.42604684917323
 20
536.8611882920733
 30
0.0
 10
-69.41039135569189
 20
536.8573242587076
 30
0.0
 10
-69.39452298587594
 20
536.854456925676
 30
0.0
 10
-69.38655375270402
 20
536.8530169363194
 30
0.0
 11
-69.43384001761284
 21
536.8631117845109
 31
0.0
 11
-69.41040776004702
 21
536.8575882955095
 31
0.0
 11
-69.38655375270402
 21
536.8530169363194
 31
0.0
  0
SPLINE
  5
197
330
1F
100
AcDbEntity
  8
0
  6
Continuous
 62
     7
100
AcDbSpline
210
0.0
220
0.0
230
1.0
 70
     8
 71
     3
 72
     9
 73
     5
 74
     3
 42
0.000000001
 43
0.0000000001
 44
0.00000001
 40
0.0
 40
0.0
 40
0.0
 40
0.0
 40
0.1213836112713758
 40
0.2508235802467375
 40
0.2508235802467375
 40
0.2508235802467375
 40
0.2508235802467375
 10
-69.38655375270402
 20
536.8530169363194
 30
0.0
 10
-69.34616124669122
 20
536.8484061442448
 30
0.0
 10
-69.26269534106291
 20
536.8388785568618
 30
0.0
 10
-69.17964756423235
 20
536.8517539003001
 30
0.0
 10
-69.13678994498409
 20
536.858398357818
 30
0.0
 11
-69.38655375270402
 21
536.8530169363194
 31
0.0
 11
-69.26547415889483
 21
536.8444312933525
 31
0.0
 11
-69.13678994498409
 21
536.858398357818
 31
0.0
  0
SPLINE
  5
198
330
1F
100
AcDbEntity
  8
0
  6
Continuous
 62
     7
100
AcDbSpline
210
0.0
220
0.0
230
1.0
 70
     8
 71
     3
 72
    13
 73
     9
 74
     7
 42
0.000000001
 43
0.0000000001
 44
0.00000001
 40
0.0
 40
0.0
 40
0.0
 40
0.0
 40
0.3663279492267502
 40
0.7524198200709808
 40
1.148767915323736
 40
1.545018546208687
 40
1.930825847704241
 40
2.296706270183592
 40
2.296706270183592
 40
2.296706270183592
 40
2.296706270183592
 10
-71.80855619589187
 20
535.4466258433115
 30
0.0
 10
-71.71636240355123
 20
535.5269656928156
 30
0.0
 10
-71.52700084078856
 20
535.6919798536132
 30
0.0
 10
-71.28279004508472
 20
535.98890950476
 30
0.0
 10
-71.0660423798548
 20
536.3174284188055
 30
0.0
 10
-70.88994995763841
 20
536.6693091223897
 30
0.0
 10
-70.75502725489102
 20
537.0290220040353
 30
0.0
 10
-70.70695508752071
 20
537.2753036248777
 30
0.0
 10
-70.68355619589188
 20
537.3951800333925
 30
0.0
 11
-71.80855619589187
 21
535.4466258433115
 31
0.0
 11
-71.53894576070465
 21
535.6946306415284
 31
0.0
 11
-71.29043747574761
 21
535.9901142552394
 31
0.0
 11
-71.07285353221478
 21
536.3213981836425
 31
0.0
 11
-70.89479355200866
 21
536.675388588912
 31
0.0
 11
-70.76329541003693
 21
537.0380944111564
 31
0.0
 11
-70.68355619589188
 21
537.3951800333925
 31
0.0
  0
SPLINE
  5
199
330
1F
100
AcDbEntity
  8
0
  6
Continuous
 62
     7
100
AcDbSpline
210
0.0
220
0.0
230
1.0
 70
     8
 71
     3
 72
    19
 73
    15
 74
    13
 42
0.000000001
 43
0.0000000001
 44
0.00000001
 40
0.0
 40
0.0
 40
0.0
 40
0.0
 40
0.2186884963296777
 40
0.4695246816496138
 40
0.7554322146443079
 40
1.071495256165798
 40
1.407847679939906
 40
1.751881300863051
 40
2.09004180950365
 40
2.409494515519751
 40
2.699887182582523
 40
2.95548492207256
 40
3.177967517596595
 40
3.379300140327875
 40
3.379300140327875
 40
3.379300140327875
 40
3.379300140327875
 10
-69.08129868604502
 20
536.8458008191465
 30
0.0
 10
-69.00782733100704
 20
536.8423337670961
 30
0.0
 10
-68.85008417246928
 20
536.8348900194346
 30
0.0
 10
-68.60929644211134
 20
536.9262875736335
 30
0.0
 10
-68.36803677628554
 20
537.0776303406656
 30
0.0
 10
-68.1368801881179
 20
537.2911141700295
 30
0.0
 10
-67.92882703213395
 20
537.5513165568104
 30
0.0
 10
-67.75547496388756
 20
537.8445474257788
 30
0.0
 10
-67.62669181542054
 20
538.1538820453114
 30
0.0
 10
-67.5499440353809
 20
538.461617258536
 30
0.0
 10
-67.52914826691692
 20
538.7517021392997
 30
0.0
 10
-67.56798350523361
 20
539.0059625831614
 30
0.0
 10
-67.66231584393162
 20
539.220409323807
 30
0.0
 10
-67.77583634060875
 20
539.3077174257099
 30
0.0
 10
-67.82976404514969
 20
539.3491929700758
 30
0.0
 11
-69.08129868604502
 21
536.8458008191465
 31
0.0
 11
-68.86263879698134
 21
536.8493379578722
 31
0.0
 11
-68.62467653847003
 21
536.9286648344553
 31
0.0
 11
-68.38153101491679
 21
537.0790755138531
 31
0.0
 11
-68.14762899168491
 21
537.2916447686152
 31
0.0
 11
-67.93684898973216
 21
537.5537606627913
 31
0.0
 11
-67.76169708559166
 21
537.8498703406818
 31
0.0
 11
-67.63256620551525
 21
538.1624047296679
 31
0.0
 11
-67.55711762452367
 21
538.472819842226
 31
0.0
 11
-67.53982864845663
 21
538.7626973879609
 31
0.0
 11
-67.58172442710948
 21
539.0148381164886
 31
0.0
 11
-67.68031978307049
 21
539.2142809986829
 31
0.0
 11
-67.82976404514969
 21
539.3491929700758
 31
0.0
  0
SPLINE
  5
19A
330
1F
100
AcDbEntity
  8
0
  6
Continuous
 62
     7
100
AcDbSpline
210
0.0
220
0.0
230
1.0
 70
     8
 71
     3
 72
    19
 73
    15
 74
    13
 42
0.000000001
 43
0.0000000001
 44
0.00000001
 40
0.0
 40
0.0
 40
0.0
 40
0.0
 40
0.2162324808423531
 40
0.4581025455558033
 40
0.7388938574295394
 40
1.0587892284789
 40
1.409040105111649
 40
1.775673875655159
 40
2.14230764619866
 40
2.492558522831384
 40
2.812453893880781
 40
3.093245205754543
 40
3.335115270468012
 40
3.551347751310372
 40
3.551347751310372
 40
3.551347751310372
 40
3.551347751310372
 10
-67.82976404514969
 20
539.3491929700758
 30
0.0
 10
-67.89765354216685
 20
539.3765437751956
 30
0.0
 10
-68.04148185161364
 20
539.4344882134062
 30
0.0
 10
-68.29441565090725
 20
539.3968451018322
 30
0.0
 10
-68.55225146054124
 20
539.2830225247014
 30
0.0
 10
-68.80838069250896
 20
539.0917097407046
 30
0.0
 10
-69.04577297689099
 20
538.8387483296873
 30
0.0
 10
-69.2501178112135
 20
538.5392362725621
 30
0.0
 10
-69.40802769486476
 20
538.212848845839
 30
0.0
 10
-69.5091113525683
 20
537.880995465122
 30
0.0
 10
-69.54740623406924
 20
537.5636056939577
 30
0.0
 10
-69.5176599224602
 20
537.2833378921322
 30
0.0
 10
-69.4243010162387
 20
537.045269361446
 30
0.0
 10
-69.30240987770914
 20
536.9494221347471
 30
0.0
 10
-69.24487510418396
 20
536.9041805589419
 30
0.0
 11
-67.82976404514969
 21
539.3491929700758
 31
0.0
 11
-68.03632597767003
 21
539.4131355682795
 31
0.0
 11
-68.27702953786144
 21
539.3894094690398
 31
0.0
 11
-68.53547156797201
 21
539.279630253878
 31
0.0
 11
-68.79403953573308
 21
539.0912804390604
 31
0.0
 11
-69.0351123301755
 21
538.8371946625814
 31
0.0
 11
-69.24226162735604
 21
538.5346893129606
 31
0.0
 11
-69.40136992554234
 21
538.2043790537803
 31
0.0
 11
-69.5015950652502
 21
537.8687742334935
 31
0.0
 11
-69.53610592717226
 21
537.5507458588107
 31
0.0
 11
-69.50255166416142
 21
537.2719666084297
 31
0.0
 11
-69.40321793223714
 21
537.051435564411
 31
0.0
 11
-69.24487510418396
 21
536.9041805589419
 31
0.0
  0
SPLINE
  5
19B
330
1F
100
AcDbEntity
  8
0
  6
Continuous
 62
     7
100
AcDbSpline
210
0.0
220
0.0
230
1.0
 70
     8
 71
     3
 72
    13
 73
     9
 74
     7
 42
0.000000001
 43
0.0000000001
 44
0.00000001
 40
0.0
 40
0.0
 40
0.0
 40
0.0
 40
0.3659528222560403
 40
0.7516391977201728
 40
1.14758151188161
 40
1.54345779600776
 40
1.928951371105659
 40
2.294600948170736
 40
2.294600948170736
 40
2.294600948170736
 40
2.294600948170736
 10
-72.33888628178178
 20
535.7535674220388
 30
0.0
 10
-72.24678364651706
 20
535.8338207803318
 30
0.0
 10
-72.0576118654108
 20
535.9986550709264
 30
0.0
 10
-71.81359793516147
 20
536.2952290643813
 30
0.0
 10
-71.5969765760718
 20
536.6233553244354
 30
0.0
 10
-71.42090722645749
 20
536.9748379456923
 30
0.0
 10
-71.2859087320897
 20
537.3341888863656
 30
0.0
 10
-71.23767911354167
 20
537.5802532747448
 30
0.0
 10
-71.21420138594361
 20
537.7000351571699
 30
0.0
 11
-72.33888628178178
 21
535.7535674220388
 31
0.0
 11
-72.06953526320895
 21
536.0013001353169
 31
0.0
 11
-71.82123433951739
 21
536.2964282980611
 31
0.0
 11
-71.60377805502003
 21
536.6273105755639
 31
0.0
 11
-71.42574395309497
 21
536.9808949247353
 31
0.0
 11
-71.2941549383896
 21
537.3432340319143
 31
0.0
 11
-71.21420138594361
 21
537.7000351571699
 31
0.0
  0
SPLINE
  5
19C
330
1F
100
AcDbEntity
  8
0
  6
Continuous
 62
     7
100
AcDbSpline
210
0.0
220
0.0
230
1.0
 70
     8
 71
     3
 72
     9
 73
     5
 74
     3
 42
0.000000001
 43
0.0000000001
 44
0.00000001
 40
0.0
 40
0.0
 40
0.0
 40
0.0
 40
0.0869132244562646
 40
0.1754093911625535
 40
0.1754093911625535
 40
0.1754093911625535
 40
0.1754093911625535
 10
-69.32001374448667
 20
536.774356891094
 30
0.0
 10
-69.29423119171996
 20
536.7608839528708
 30
0.0
 10
-69.24219650325156
 20
536.733692713395
 30
0.0
 10
-69.18511706712526
 20
536.7199257629306
 30
0.0
 10
-69.15631979570404
 20
536.7129801788631
 30
0.0
 11
-69.32001374448667
 21
536.774356891094
 31
0.0
 11
-69.24142755497657
 21
536.737233858543
 31
0.0
 11
-69.15631979570404
 21
536.7129801788631
 31
0.0
  0
SPLINE
  5
19D
330
1F
100
AcDbEntity
  8
0
  6
Continuous
 62
     7
100
AcDbSpline
210
0.0
220
0.0
230
1.0
 70
     8
 71
     3
 72
     9
 73
     5
 74
     3
 42
0.000000001
 43
0.0000000001
 44
0.00000001
 40
0.0
 40
0.0
 40
0.0
 40
0.0
 40
0.086247999056451
 40
0.1743792236691939
 40
0.1743792236691939
 40
0.1743792236691939
 40
0.1743792236691939
 10
-69.24487510418396
 20
536.9041805589419
 30
0.0
 10
-69.2192099844532
 20
536.8909153681287
 30
0.0
 10
-69.16731933941062
 20
536.86409535936
 30
0.0
 10
-69.11017794052755
 20
536.8519427406243
 30
0.0
 10
-69.08129868604502
 20
536.8458008191465
 30
0.0
 11
-69.24487510418396
 21
536.9041805589419
 31
0.0
 11
-69.16659525235494
 21
536.8679730694822
 31
0.0
 11
-69.08129868604502
 21
536.8458008191465
 31
0.0
  0
SPLINE
  5
19E
330
1F
100
AcDbEntity
  8
0
  6
Continuous
 62
     7
100
AcDbSpline
210
0.0
220
0.0
230
1.0
 70
     8
 71
     3
 72
    13
 73
     9
 74
     7
 42
0.000000001
 43
0.0000000001
 44
0.00000001
 40
0.0
 40
0.0
 40
0.0
 40
0.0
 40
0.3663279492268167
 40
0.7524198200709512
 40
1.148767915323801
 40
1.545018546208658
 40
1.930825847704314
 40
2.296706270183557
 40
2.296706270183557
 40
2.296706270183557
 40
2.296706270183557
 10
-72.33715076530729
 20
538.3451684372967
 30
0.0
 10
-72.4293445576479
 20
538.2648285877925
 30
0.0
 10
-72.61870612041054
 20
538.0998144269952
 30
0.0
 10
-72.86291691611446
 20
537.802884775848
 30
0.0
 10
-73.07966458134423
 20
537.4743658618025
 30
0.0
 10
-73.25575700356079
 20
537.1224851582183
 30
0.0
 10
-73.39067970630805
 20
536.762772276573
 30
0.0
 10
-73.43875187367843
 20
536.5164906557305
 30
0.0
 10
-73.46215076530726
 20
536.3966142472157
 30
0.0
 11
-72.33715076530729
 21
538.3451684372967
 31
0.0
 11
-72.60676120049449
 21
538.0971636390797
 31
0.0
 11
-72.85526948545152
 21
537.8016800253688
 31
0.0
 11
-73.07285342898435
 21
537.4703960969656
 31
0.0
 11
-73.25091340919047
 21
537.1164056916962
 31
0.0
 11
-73.38241155116219
 21
536.7536998694517
 31
0.0
 11
-73.46215076530726
 21
536.3966142472157
 31
0.0
  0
MTEXT
  5
1A0
330
1F
100
AcDbEntity
  8
1
 62
     4
100
AcDbMText
 10
-52.36225195502635
 20
468.3368692241792
 30
0.0
 40
3.5
 41
0.0
 71
     2
 72
     1
  1
 
  7
CONVERTER_13
 73
     1
 44
1.32052821128451
  0
DIMENSION
  5
1AD
330
1F
100
AcDbEntity
  8
1
100
AcDbDimension
  2
*D4
 10
-316.2331258814006
 20
355.0511453660616
 30
0.0
 11
-319.8040151263924
 21
361.8040151263933
 31
0.0
 70
    33
  1
<>
 71
     5
 42
-1.0
 53
44.99999999999898
  3
ME10_DIM_10
100
AcDbAlignedDimension
 13
-295.2475456090639
 23
340.4295261244034
 33
0.0
 14
-298.4295261244034
 24
337.247545609064
 34
0.0
  0
DIMENSION
  5
1B8
330
1F
100
AcDbEntity
  8
1
100
AcDbDimension
  2
*D5
 10
-320.5000000000001
 20
336.5
 30
0.0
 11
-327.5000000000001
 21
260.0000000000001
 31
0.0
 70
    33
  1
<>
 71
     5
 42
-1.0
 53
-89.99999999999994
  3
ME10_DIM_11
100
AcDbAlignedDimension
 13
-300.8999999999999
 23
183.5000000000001
 33
0.0
 14
-300.9000000000001
 24
336.5
 34
0.0
  0
DIMENSION
  5
1C3
330
1F
100
AcDbEntity
  8
1
100
AcDbDimension
  2
*D6
 10
-294.5000000000001
 20
362.5
 30
0.0
 11
-238.0
 21
369.5
 31
0.0
 70
    33
  1
<>
 71
     5
 42
-1.0
 53
0.00013888888889
  3
ME10_DIM_12
100
AcDbAlignedDimension
 13
-181.4999999999999
 23
342.9000000000002
 33
0.0
 14
-294.5000000000001
 24
342.9000000000002
 34
0.0
  0
DIMENSION
  5
1CE
330
1F
100
AcDbEntity
  8
1
100
AcDbDimension
  2
*D7
 10
-300.4999999999999
 20
157.5
 30
0.0
 11
-237.9999999999999
 21
164.5
 31
0.0
 70
    33
  1
<>
 71
     5
 42
-1.0
 53
0.00013888888889
  3
ME10_DIM_13
100
AcDbAlignedDimension
 13
-175.4999999999998
 23
177.4999999999999
 33
0.0
 14
-300.5000000000001
 24
177.5000000000001
 34
0.0
  0
DIMENSION
  5
1DB
330
1F
100
AcDbEntity
  8
1
100
AcDbDimension
  2
*D8
 10
-155.5000000000002
 20
457.9000000000001
 30
0.0
 11
-162.8000000000002
 21
472.662411052976
 31
0.0
 70
    32
  1
<>
 71
     5
 42
-1.0
 53
90.0
  3
ME10_DIM_14
100
AcDbAlignedDimension
 13
-175.4999999999999
 23
456.4000000000001
 33
0.0
 14
-175.5
 24
457.9000000000001
 34
0.0
 50
90.0
100
AcDbRotatedDimension
  0
DIMENSION
  5
1E6
330
1F
100
AcDbEntity
  8
1
100
AcDbDimension
  2
*D9
 10
-155.4999999999999
 20
342.5
 30
0.0
 11
-162.4999999999999
 21
259.9999999999999
 31
0.0
 70
    33
  1
<>
 71
     5
 42
-1.0
 53
-89.99999999999991
  3
ME10_DIM_15
100
AcDbAlignedDimension
 13
-175.4999999999998
 23
177.4999999999999
 33
0.0
 14
-175.5
 24
342.5
 34
0.0
  0
ENDSEC
  0
SECTION
  2
OBJECTS
  0
DICTIONARY
  5
C
330
0
100
AcDbDictionary
281
     1
  3
ACAD_GROUP
350
D
  3
ACAD_LAYOUT
350
1A
  3
ACAD_MATERIAL
350
43
  3
ACAD_MLEADERSTYLE
350
1E9
  3
ACAD_MLINESTYLE
350
17
  3
ACAD_PLOTSETTINGS
350
19
  3
ACAD_PLOTSTYLENAME
350
E
  3
ACAD_SCALELIST
350
47
  3
ACAD_VISUALSTYLE
350
2A
  3
AcDbVariableDictionary
350
1E7
  0
DICTIONARY
  5
D
102
{ACAD_REACTORS
330
C
102
}
330
C
100
AcDbDictionary
281
     1
  0
DICTIONARY
  5
1A
102
{ACAD_REACTORS
330
C
102
}
330
C
100
AcDbDictionary
281
     1
  3
Layout1
350
1E
  3
Layout2
350
26
  3
Model
350
22
  0
DICTIONARY
  5
43
102
{ACAD_REACTORS
330
C
102
}
330
C
100
AcDbDictionary
281
     1
  3
ByBlock
350
45
  3
ByLayer
350
44
  3
Global
350
46
  0
DICTIONARY
  5
1E9
102
{ACAD_REACTORS
330
C
102
}
330
C
100
AcDbDictionary
281
     1
  0
DICTIONARY
  5
17
102
{ACAD_REACTORS
330
C
102
}
330
C
100
AcDbDictionary
281
     1
  3
Standard
350
18
  0
DICTIONARY
  5
19
102
{ACAD_REACTORS
330
C
102
}
330
C
100
AcDbDictionary
281
     1
  0
ACDBDICTIONARYWDFLT
  5
E
102
{ACAD_REACTORS
330
C
102
}
330
C
100
AcDbDictionary
281
     1
  3
Normal
350
F
100
AcDbDictionaryWithDefault
340
F
  0
DICTIONARY
  5
47
102
{ACAD_REACTORS
330
C
102
}
330
C
100
AcDbDictionary
281
     1
  3
A0
350
48
  3
A1
350
49
  3
A2
350
4A
  3
A3
350
4B
  3
A4
350
4C
  3
A5
350
4D
  3
A6
350
4E
  3
A7
350
4F
  3
A8
350
50
  3
A9
350
51
  3
B0
350
52
  3
B1
350
53
  3
B2
350
54
  3
B3
350
55
  3
B4
350
56
  3
B5
350
57
  3
B6
350
58
  3
B7
350
59
  3
B8
350
5A
  3
B9
350
5B
  3
C0
350
5C
  3
C1
350
5D
  3
C2
350
5E
  3
C3
350
5F
  3
C4
350
60
  3
C5
350
61
  3
C6
350
62
  3
C7
350
63
  3
C8
350
64
  3
C9
350
65
  3
D0
350
66
  3
D1
350
67
  3
D2
350
68
  0
DICTIONARY
  5
2A
102
{ACAD_REACTORS
330
C
102
}
330
C
100
AcDbDictionary
281
     1
  3
2dWireframe
350
2F
  3
Basic
350
32
  3
Brighten
350
36
  3
ColorChange
350
3A
  3
Conceptual
350
34
  3
Dim
350
35
  3
EdgeColorOff
350
3D
  3
Facepattern
350
39
  3
Flat
350
2B
  3
FlatWithEdges
350
2C
  3
Gouraud
350
2D
  3
GouraudWithEdges
350
2E
  3
Hidden
350
31
  3
JitterOff
350
3B
  3
Linepattern
350
38
  3
OverhangOff
350
3C
  3
Realistic
350
33
  3
Shaded
350
42
  3
Shaded with edges
350
41
  3
Shades of Gray
350
3E
  3
Sketchy
350
3F
  3
Thicken
350
37
  3
Wireframe
350
30
  3
X-Ray
350
40
  0
DICTIONARY
  5
1E7
102
{ACAD_REACTORS
330
C
102
}
330
C
100
AcDbDictionary
281
     1
  3
CANNOSCALE
350
1EE
  3
DIMASSOC
350
1EC
  3
HIDETEXT
350
1ED
  3
MSLTSCALE
350
1EF
  0
LAYOUT
  5
1E
102
{ACAD_REACTORS
330
1A
102
}
330
1A
100
AcDbPlotSettings
  1

  2
none_device
  4

  6

 40
0.0
 41
0.0
 42
0.0
 43
0.0
 44
0.0
 45
0.0
 46
0.0
 47
0.0
 48
0.0
 49
0.0
140
0.0
141
0.0
142
1.0
143
1.0
 70
   688
 72
     0
 73
     0
 74
     5
  7

 75
    16
147
1.0
148
0.0
149
0.0
100
AcDbLayout
  1
Layout1
 70
     1
 71
     1
 10
0.0
 20
0.0
 11
12.0
 21
9.0
 12
0.0
 22
0.0
 32
0.0
 14
1.00000000000000E+20
 24
1.00000000000000E+20
 34
1.00000000000000E+20
 15
-1.00000000000000E+20
 25
-1.00000000000000E+20
 35
-1.00000000000000E+20
146
0.0
 13
0.0
 23
0.0
 33
0.0
 16
1.0
 26
0.0
 36
0.0
 17
0.0
 27
1.0
 37
0.0
 76
     0
330
1B
  0
LAYOUT
  5
26
102
{ACAD_REACTORS
330
1A
102
}
330
1A
100
AcDbPlotSettings
  1

  2
none_device
  4

  6

 40
0.0
 41
0.0
 42
0.0
 43
0.0
 44
0.0
 45
0.0
 46
0.0
 47
0.0
 48
0.0
 49
0.0
140
0.0
141
0.0
142
1.0
143
1.0
 70
   688
 72
     0
 73
     0
 74
     5
  7

 75
    16
147
1.0
148
0.0
149
0.0
100
AcDbLayout
  1
Layout2
 70
     1
 71
     2
 10
0.0
 20
0.0
 11
0.0
 21
0.0
 12
0.0
 22
0.0
 32
0.0
 14
0.0
 24
0.0
 34
0.0
 15
0.0
 25
0.0
 35
0.0
146
0.0
 13
0.0
 23
0.0
 33
0.0
 16
1.0
 26
0.0
 36
0.0
 17
0.0
 27
1.0
 37
0.0
 76
     0
330
23
  0
LAYOUT
  5
22
102
{ACAD_REACTORS
330
1A
102
}
330
1A
100
AcDbPlotSettings
  1

  2
none_device
  4
Letter_(8.50_x_11.00_Inches)
  6

 40
6.35
 41
6.35
 42
6.35000508
 43
6.35000508
 44
215.9
 45
279.4
 46
0.0
 47
0.0
 48
0.0
 49
0.0
140
0.0
141
0.0
142
1.0
143
1.0
 70
  1712
 72
     0
 73
     0
 74
     0
  7

 75
     0
147
1.0
148
0.0
149
0.0
100
AcDbLayout
  1
Model
 70
     1
 71
     0
 10
0.0
 20
0.0
 11
12.0
 21
9.0
 12
0.0
 22
0.0
 32
0.0
 14
-420.0000000000002
 24
0.0
 34
0.0
 15
0.0
 25
594.0000000000002
 35
0.0
146
0.0
 13
0.0
 23
0.0
 33
0.0
 16
1.0
 26
0.0
 36
0.0
 17
0.0
 27
1.0
 37
0.0
 76
     0
330
1F
331
29
  0
MATERIAL
  5
45
102
{ACAD_REACTORS
330
43
102
}
102
{ACAD_XDICTIONARY
360
222
102
}
330
43
100
AcDbMaterial
  1
ByBlock
  0
MATERIAL
  5
44
102
{ACAD_REACTORS
330
43
102
}
102
{ACAD_XDICTIONARY
360
220
102
}
330
43
100
AcDbMaterial
  1
ByLayer
  0
MATERIAL
  5
46
102
{ACAD_REACTORS
330
43
102
}
102
{ACAD_XDICTIONARY
360
224
102
}
330
43
100
AcDbMaterial
  1
Global
  0
MLINESTYLE
  5
18
102
{ACAD_REACTORS
330
17
102
}
330
17
100
AcDbMlineStyle
  2
Standard
 70
     0
  3

 62
   256
 51
90.0
 52
90.0
 71
     2
 49
0.5
 62
   256
  6
BYLAYER
 49
-0.5
 62
   256
  6
BYLAYER
  0
ACDBPLACEHOLDER
  5
F
102
{ACAD_REACTORS
330
E
102
}
330
E
  0
SCALE
  5
48
102
{ACAD_REACTORS
330
47
102
}
330
47
100
AcDbScale
 70
     0
300
1:1
140
1.0
141
1.0
290
     1
  0
SCALE
  5
49
102
{ACAD_REACTORS
330
47
102
}
330
47
100
AcDbScale
 70
     0
300
1:2
140
1.0
141
2.0
290
     0
  0
SCALE
  5
4A
102
{ACAD_REACTORS
330
47
102
}
330
47
100
AcDbScale
 70
     0
300
1:4
140
1.0
141
4.0
290
     0
  0
SCALE
  5
4B
102
{ACAD_REACTORS
330
47
102
}
330
47
100
AcDbScale
 70
     0
300
1:5
140
1.0
141
5.0
290
     0
  0
SCALE
  5
4C
102
{ACAD_REACTORS
330
47
102
}
330
47
100
AcDbScale
 70
     0
300
1:8
140
1.0
141
8.0
290
     0
  0
SCALE
  5
4D
102
{ACAD_REACTORS
330
47
102
}
330
47
100
AcDbScale
 70
     0
300
1:10
140
1.0
141
10.0
290
     0
  0
SCALE
  5
4E
102
{ACAD_REACTORS
330
47
102
}
330
47
100
AcDbScale
 70
     0
300
1:16
140
1.0
141
16.0
290
     0
  0
SCALE
  5
4F
102
{ACAD_REACTORS
330
47
102
}
330
47
100
AcDbScale
 70
     0
300
1:20
140
1.0
141
20.0
290
     0
  0
SCALE
  5
50
102
{ACAD_REACTORS
330
47
102
}
330
47
100
AcDbScale
 70
     0
300
1:30
140
1.0
141
30.0
290
     0
  0
SCALE
  5
51
102
{ACAD_REACTORS
330
47
102
}
330
47
100
AcDbScale
 70
     0
300
1:40
140
1.0
141
40.0
290
     0
  0
SCALE
  5
52
102
{ACAD_REACTORS
330
47
102
}
330
47
100
AcDbScale
 70
     0
300
1:50
140
1.0
141
50.0
290
     0
  0
SCALE
  5
53
102
{ACAD_REACTORS
330
47
102
}
330
47
100
AcDbScale
 70
     0
300
1:100
140
1.0
141
100.0
290
     0
  0
SCALE
  5
54
102
{ACAD_REACTORS
330
47
102
}
330
47
100
AcDbScale
 70
     0
300
2:1
140
2.0
141
1.0
290
     0
  0
SCALE
  5
55
102
{ACAD_REACTORS
330
47
102
}
330
47
100
AcDbScale
 70
     0
300
4:1
140
4.0
141
1.0
290
     0
  0
SCALE
  5
56
102
{ACAD_REACTORS
330
47
102
}
330
47
100
AcDbScale
 70
     0
300
8:1
140
8.0
141
1.0
290
     0
  0
SCALE
  5
57
102
{ACAD_REACTORS
330
47
102
}
330
47
100
AcDbScale
 70
     0
300
10:1
140
10.0
141
1.0
290
     0
  0
SCALE
  5
58
102
{ACAD_REACTORS
330
47
102
}
330
47
100
AcDbScale
 70
     0
300
100:1
140
100.0
141
1.0
290
     0
  0
SCALE
  5
59
102
{ACAD_REACTORS
330
47
102
}
330
47
100
AcDbScale
 70
     0
300
1/128" = 1'-0"
140
0.0078125
141
12.0
290
     0
  0
SCALE
  5
5A
102
{ACAD_REACTORS
330
47
102
}
330
47
100
AcDbScale
 70
     0
300
1/64" = 1'-0"
140
0.015625
141
12.0
290
     0
  0
SCALE
  5
5B
102
{ACAD_REACTORS
330
47
102
}
330
47
100
AcDbScale
 70
     0
300
1/32" = 1'-0"
140
0.03125
141
12.0
290
     0
  0
SCALE
  5
5C
102
{ACAD_REACTORS
330
47
102
}
330
47
100
AcDbScale
 70
     0
300
1/16" = 1'-0"
140
0.0625
141
12.0
290
     0
  0
SCALE
  5
5D
102
{ACAD_REACTORS
330
47
102
}
330
47
100
AcDbScale
 70
     0
300
3/32" = 1'-0"
140
0.09375
141
12.0
290
     0
  0
SCALE
  5
5E
102
{ACAD_REACTORS
330
47
102
}
330
47
100
AcDbScale
 70
     0
300
1/8" = 1'-0"
140
0.125
141
12.0
290
     0
  0
SCALE
  5
5F
102
{ACAD_REACTORS
330
47
102
}
330
47
100
AcDbScale
 70
     0
300
3/16" = 1'-0"
140
0.1875
141
12.0
290
     0
  0
SCALE
  5
60
102
{ACAD_REACTORS
330
47
102
}
330
47
100
AcDbScale
 70
     0
300
1/4" = 1'-0"
140
0.25
141
12.0
290
     0
  0
SCALE
  5
61
102
{ACAD_REACTORS
330
47
102
}
330
47
100
AcDbScale
 70
     0
300
3/8" = 1'-0"
140
0.375
141
12.0
290
     0
  0
SCALE
  5
62
102
{ACAD_REACTORS
330
47
102
}
330
47
100
AcDbScale
 70
     0
300
1/2" = 1'-0"
140
0.5
141
12.0
290
     0
  0
SCALE
  5
63
102
{ACAD_REACTORS
330
47
102
}
330
47
100
AcDbScale
 70
     0
300
3/4" = 1'-0"
140
0.75
141
12.0
290
     0
  0
SCALE
  5
64
102
{ACAD_REACTORS
330
47
102
}
330
47
100
AcDbScale
 70
     0
300
1" = 1'-0"
140
1.0
141
12.0
290
     0
  0
SCALE
  5
65
102
{ACAD_REACTORS
330
47
102
}
330
47
100
AcDbScale
 70
     0
300
1-1/2" = 1'-0"
140
1.5
141
12.0
290
     0
  0
SCALE
  5
66
102
{ACAD_REACTORS
330
47
102
}
330
47
100
AcDbScale
 70
     0
300
3" = 1'-0"
140
3.0
141
12.0
290
     0
  0
SCALE
  5
67
102
{ACAD_REACTORS
330
47
102
}
330
47
100
AcDbScale
 70
     0
300
6" = 1'-0"
140
6.0
141
12.0
290
     0
  0
SCALE
  5
68
102
{ACAD_REACTORS
330
47
102
}
330
47
100
AcDbScale
 70
     0
300
1'-0" = 1'-0"
140
12.0
141
12.0
290
     0
  0
VISUALSTYLE
  5
2F
102
{ACAD_REACTORS
330
2A
102
}
102
{ACAD_XDICTIONARY
360
1F8
102
}
330
2A
100
AcDbVisualStyle
  2
2dWireframe
 70
     4
 71
     0
 72
     2
 73
     0
 90
        0
 40
0.6
 41
30.0
 62
     5
 63
     7
 74
     1
 91
        4
 64
     7
 65
   257
 75
     1
175
     1
 42
1.0
 92
        0
 66
   257
 43
1.0
 76
     1
 77
     6
 78
     2
 67
     7
 79
     5
170
     0
171
     0
290
     0
174
     0
 93
        1
 44
0.0
173
     0
291
     0
 45
0.0
1001
ACAD
1000
AcDbSavedByObjectVersion
1070
     0
  0
VISUALSTYLE
  5
32
102
{ACAD_REACTORS
330
2A
102
}
102
{ACAD_XDICTIONARY
360
1FE
102
}
330
2A
100
AcDbVisualStyle
  2
Basic
 70
     7
 71
     1
 72
     0
 73
     1
 90
        0
 40
0.6
 41
30.0
 62
     5
 63
     7
 74
     0
 91
        4
 64
     7
 65
   257
 75
     1
175
     1
 42
1.0
 92
        8
 66
     7
 43
1.0
 76
     1
 77
     6
 78
     2
 67
     7
 79
     5
170
     0
171
     0
290
     0
174
     0
 93
        1
 44
0.0
173
     0
291
     1
 45
0.0
1001
ACAD
1000
AcDbSavedByObjectVersion
1070
     0
  0
VISUALSTYLE
  5
36
102
{ACAD_REACTORS
330
2A
102
}
102
{ACAD_XDICTIONARY
360
206
102
}
330
2A
100
AcDbVisualStyle
  2
Brighten
 70
    12
 71
     2
 72
     2
 73
     0
 90
        0
 40
0.6
 41
30.0
 62
     5
 63
     7
 74
     1
 91
        4
 64
     7
 65
   257
 75
     1
175
     1
 42
1.0
 92
        8
 66
     7
 43
1.0
 76
     1
 77
     6
 78
     2
 67
     7
 79
     5
170
     0
171
     0
290
     0
174
     0
 93
        1
 44
50.0
173
     0
291
     1
 45
0.0
1001
ACAD
1000
AcDbSavedByObjectVersion
1070
     0
  0
VISUALSTYLE
  5
3A
102
{ACAD_REACTORS
330
2A
102
}
102
{ACAD_XDICTIONARY
360
20E
102
}
330
2A
100
AcDbVisualStyle
  2
ColorChange
 70
    16
 71
     2
 72
     2
 73
     3
 90
        0
 40
0.6
 41
30.0
 62
     5
 63
     8
 74
     1
 91
        4
 64
     7
 65
   257
 75
     1
175
     1
 42
1.0
 92
        8
 66
     8
 43
1.0
 76
     1
 77
     6
 78
     2
 67
     7
 79
     5
170
     0
171
     0
290
     0
174
     0
 93
        1
 44
0.0
173
     0
291
     1
 45
0.0
1001
ACAD
1000
AcDbSavedByObjectVersion
1070
     0
  0
VISUALSTYLE
  5
34
102
{ACAD_REACTORS
330
2A
102
}
102
{ACAD_XDICTIONARY
360
202
102
}
330
2A
100
AcDbVisualStyle
  2
Conceptual
 70
     9
 71
     3
 72
     2
 73
     0
 90
        0
 40
0.6
 41
30.0
 62
     5
 63
     7
 74
     2
 91
        2
 64
     7
 65
   257
 75
     1
175
     1
 42
179.0
 92
        8
 66
     7
 43
1.0
 76
     1
 77
     6
 78
     2
 67
     7
 79
     3
170
     0
171
     0
290
     0
174
     0
 93
        1
 44
0.0
173
     0
291
     0
 45
0.0
1001
ACAD
1000
AcDbSavedByObjectVersion
1070
     0
  0
VISUALSTYLE
  5
35
102
{ACAD_REACTORS
330
2A
102
}
102
{ACAD_XDICTIONARY
360
204
102
}
330
2A
100
AcDbVisualStyle
  2
Dim
 70
    11
 71
     2
 72
     2
 73
     0
 90
        0
 40
0.6
 41
30.0
 62
     5
 63
     7
 74
     1
 91
        4
 64
     7
 65
   257
 75
     1
175
     1
 42
1.0
 92
        8
 66
     7
 43
1.0
 76
     1
 77
     6
 78
     2
 67
     7
 79
     5
170
     0
171
     0
290
     0
174
     0
 93
        1
 44
-50.0
173
     0
291
     1
 45
0.0
1001
ACAD
1000
AcDbSavedByObjectVersion
1070
     0
  0
VISUALSTYLE
  5
3D
102
{ACAD_REACTORS
330
2A
102
}
102
{ACAD_XDICTIONARY
360
214
102
}
330
2A
100
AcDbVisualStyle
  2
EdgeColorOff
 70
    22
 71
     2
 72
     2
 73
     0
 90
        0
 40
0.6
 41
30.0
 62
     5
 63
     7
 74
     1
 91
        4
 64
     7
 65
   257
 75
     1
175
     1
 42
1.0
 92
        8
 66
     7
 43
1.0
 76
     1
 77
     6
 78
     2
 67
     7
 79
     5
170
     0
171
     0
290
     0
174
     0
 93
        1
 44
0.0
173
     0
291
     1
 45
0.0
1001
ACAD
1000
AcDbSavedByObjectVersion
1070
     0
  0
VISUALSTYLE
  5
39
102
{ACAD_REACTORS
330
2A
102
}
102
{ACAD_XDICTIONARY
360
20C
102
}
330
2A
100
AcDbVisualStyle
  2
Facepattern
 70
    15
 71
     2
 72
     2
 73
     0
 90
        0
 40
0.6
 41
30.0
 62
     5
 63
     7
 74
     1
 91
        4
 64
     7
 65
   257
 75
     1
175
     1
 42
1.0
 92
        8
 66
     7
 43
1.0
 76
     1
 77
     6
 78
     2
 67
     7
 79
     5
170
     0
171
     0
290
     0
174
     0
 93
        1
 44
0.0
173
     0
291
     1
 45
0.0
1001
ACAD
1000
AcDbSavedByObjectVersion
1070
     0
  0
VISUALSTYLE
  5
2B
102
{ACAD_REACTORS
330
2A
102
}
102
{ACAD_XDICTIONARY
360
1F0
102
}
330
2A
100
AcDbVisualStyle
  2
Flat
 70
     0
 71
     2
 72
     1
 73
     1
 90
        2
 40
0.6
 41
30.0
 62
     5
 63
     7
 74
     0
 91
        0
 64
     7
 65
   257
 75
     1
175
     1
 42
1.0
 92
        8
 66
     7
 43
1.0
 76
     1
 77
     6
 78
     2
 67
     7
 79
     5
170
     0
171
     0
290
     0
174
     0
 93
       13
 44
0.0
173
     0
291
     1
 45
0.0
1001
ACAD
1000
AcDbSavedByObjectVersion
1070
     0
  0
VISUALSTYLE
  5
2C
102
{ACAD_REACTORS
330
2A
102
}
102
{ACAD_XDICTIONARY
360
1F2
102
}
330
2A
100
AcDbVisualStyle
  2
FlatWithEdges
 70
     1
 71
     2
 72
     1
 73
     1
 90
        2
 40
0.6
 41
30.0
 62
     5
 63
     7
 74
     1
 91
        0
 64
     7
 65
   257
 75
     1
175
     1
 42
1.0
 92
        0
 66
   257
 43
1.0
 76
     1
 77
     6
 78
     2
 67
     7
 79
     5
170
     0
171
     0
290
     0
174
     0
 93
       13
 44
0.0
173
     0
291
     1
 45
0.0
1001
ACAD
1000
AcDbSavedByObjectVersion
1070
     0
  0
VISUALSTYLE
  5
2D
102
{ACAD_REACTORS
330
2A
102
}
102
{ACAD_XDICTIONARY
360
1F4
102
}
330
2A
100
AcDbVisualStyle
  2
Gouraud
 70
     2
 71
     2
 72
     2
 73
     1
 90
        2
 40
0.6
 41
30.0
 62
     5
 63
     7
 74
     0
 91
        0
 64
     7
 65
   257
 75
     1
175
     1
 42
1.0
 92
        0
 66
     7
 43
1.0
 76
     1
 77
     6
 78
     2
 67
     7
 79
     5
170
     0
171
     0
290
     0
174
     0
 93
       13
 44
0.0
173
     0
291
     1
 45
0.0
1001
ACAD
1000
AcDbSavedByObjectVersion
1070
     0
  0
VISUALSTYLE
  5
2E
102
{ACAD_REACTORS
330
2A
102
}
102
{ACAD_XDICTIONARY
360
1F6
102
}
330
2A
100
AcDbVisualStyle
  2
GouraudWithEdges
 70
     3
 71
     2
 72
     2
 73
     1
 90
        2
 40
0.6
 41
30.0
 62
     5
 63
     7
 74
     1
 91
        0
 64
     7
 65
   257
 75
     1
175
     1
 42
1.0
 92
        0
 66
   257
 43
1.0
 76
     1
 77
     6
 78
     2
 67
     7
 79
     5
170
     0
171
     0
290
     0
174
     0
 93
       13
 44
0.0
173
     0
291
     1
 45
0.0
1001
ACAD
1000
AcDbSavedByObjectVersion
1070
     0
  0
VISUALSTYLE
  5
31
102
{ACAD_REACTORS
330
2A
102
}
102
{ACAD_XDICTIONARY
360
1FC
102
}
330
2A
100
AcDbVisualStyle
  2
Hidden
 70
     6
 71
     1
 72
     2
 73
     2
 90
        0
 40
0.6
 41
30.0
 62
     5
 63
     7
 74
     2
 91
        2
 64
     7
 65
   257
 75
     2
175
     1
 42
40.0
 92
        0
 66
   257
 43
1.0
 76
     1
 77
     6
 78
     2
 67
     7
 79
     3
170
     0
171
     0
290
     0
174
     0
 93
        1
 44
0.0
173
     0
291
     0
 45
0.0
1001
ACAD
1000
AcDbSavedByObjectVersion
1070
     0
  0
VISUALSTYLE
  5
3B
102
{ACAD_REACTORS
330
2A
102
}
102
{ACAD_XDICTIONARY
360
210
102
}
330
2A
100
AcDbVisualStyle
  2
JitterOff
 70
    20
 71
     2
 72
     2
 73
     0
 90
        0
 40
0.6
 41
30.0
 62
     5
 63
     7
 74
     1
 91
        4
 64
     7
 65
   257
 75
     1
175
     1
 42
1.0
 92
       10
 66
     7
 43
1.0
 76
     1
 77
     6
 78
     2
 67
     7
 79
     5
170
     0
171
     0
290
     0
174
     0
 93
        1
 44
0.0
173
     0
291
     1
 45
0.0
1001
ACAD
1000
AcDbSavedByObjectVersion
1070
     0
  0
VISUALSTYLE
  5
38
102
{ACAD_REACTORS
330
2A
102
}
102
{ACAD_XDICTIONARY
360
20A
102
}
330
2A
100
AcDbVisualStyle
  2
Linepattern
 70
    14
 71
     2
 72
     2
 73
     0
 90
        0
 40
0.6
 41
30.0
 62
     5
 63
     7
 74
     1
 91
        4
 64
     7
 65
   257
 75
     7
175
     7
 42
1.0
 92
        8
 66
     7
 43
1.0
 76
     1
 77
     6
 78
     2
 67
     7
 79
     5
170
     0
171
     0
290
     0
174
     0
 93
        1
 44
0.0
173
     0
291
     1
 45
0.0
1001
ACAD
1000
AcDbSavedByObjectVersion
1070
     0
  0
VISUALSTYLE
  5
3C
102
{ACAD_REACTORS
330
2A
102
}
102
{ACAD_XDICTIONARY
360
212
102
}
330
2A
100
AcDbVisualStyle
  2
OverhangOff
 70
    21
 71
     2
 72
     2
 73
     0
 90
        0
 40
0.6
 41
30.0
 62
     5
 63
     7
 74
     1
 91
        4
 64
     7
 65
   257
 75
     1
175
     1
 42
1.0
 92
        9
 66
     7
 43
1.0
 76
     1
 77
     6
 78
     2
 67
     7
 79
     5
170
     0
171
     0
290
     0
174
     0
 93
        1
 44
0.0
173
     0
291
     1
 45
0.0
1001
ACAD
1000
AcDbSavedByObjectVersion
1070
     0
  0
VISUALSTYLE
  5
33
102
{ACAD_REACTORS
330
2A
102
}
102
{ACAD_XDICTIONARY
360
200
102
}
330
2A
100
AcDbVisualStyle
  2
Realistic
 70
     8
 71
     2
 72
     3
 73
     0
 90
        2
 40
0.6
 41
30.0
 62
     5
 63
     7
 74
     0
 91
        0
 64
     7
 65
   257
 75
     1
175
     1
 42
1.0
 92
        8
 66
   257
 43
1.0
 76
     1
 77
     6
 78
     2
 67
     7
 79
     3
170
     0
171
     0
290
     0
174
     0
 93
       13
 44
0.0
173
     0
291
     0
 45
0.0
1001
ACAD
1000
AcDbSavedByObjectVersion
1070
     0
  0
VISUALSTYLE
  5
42
102
{ACAD_REACTORS
330
2A
102
}
102
{ACAD_XDICTIONARY
360
21E
102
}
330
2A
100
AcDbVisualStyle
  2
Shaded
 70
    27
 71
     2
 72
     2
 73
     1
 90
        2
 40
0.6
 41
30.0
 62
     5
 63
     7
 74
     0
 91
        4
 64
     7
 65
   257
 75
     1
175
     1
 42
1.0
 92
        8
 66
   257
 43
1.0
 76
     1
 77
     6
 78
     2
 67
     8
 79
     3
170
     0
171
     0
290
     0
174
     0
 93
        5
 44
0.0
173
     0
291
     0
 45
0.0
1001
ACAD
1000
AcDbSavedByObjectVersion
1070
     0
  0
VISUALSTYLE
  5
41
102
{ACAD_REACTORS
330
2A
102
}
102
{ACAD_XDICTIONARY
360
21C
102
}
330
2A
100
AcDbVisualStyle
  2
Shaded with edges
 70
    26
 71
     2
 72
     2
 73
     1
 90
        2
 40
0.6
 41
30.0
 62
     5
 63
     7
 74
     1
 91
       10
 64
     7
 65
   257
 75
     2
175
     1
 42
1.0
 92
        8
 66
   257
 43
1.0
 76
     1
 77
     6
 78
     2
 67
     7
 79
     3
170
     0
171
     0
290
     0
174
     0
 93
        5
 44
0.0
173
     0
291
     0
 45
0.0
1001
ACAD
1000
AcDbSavedByObjectVersion
1070
     0
  0
VISUALSTYLE
  5
3E
102
{ACAD_REACTORS
330
2A
102
}
102
{ACAD_XDICTIONARY
360
216
102
}
330
2A
100
AcDbVisualStyle
  2
Shades of Gray
 70
    23
 71
     2
 72
     2
 73
     3
 90
        0
 40
0.6
 41
30.0
 62
     5
 63
     7
 74
     2
 91
        2
 64
     7
 65
     7
 75
     1
175
     1
 42
40.0
 92
        8
 66
     7
 43
1.0
 76
     1
 77
     6
 78
     2
 67
     7
 79
     3
170
     0
171
     0
290
     0
174
     0
 93
        1
 44
0.0
173
     0
291
     0
 45
0.0
1001
ACAD
1000
AcDbSavedByObjectVersion
1070
     0
  0
VISUALSTYLE
  5
3F
102
{ACAD_REACTORS
330
2A
102
}
102
{ACAD_XDICTIONARY
360
218
102
}
330
2A
100
AcDbVisualStyle
  2
Sketchy
 70
    24
 71
     1
 72
     2
 73
     2
 90
        0
 40
0.6
 41
30.0
 62
     5
 63
     7
 74
     2
 91
        2
 64
     7
 65
     7
 75
     1
175
     1
 42
40.0
 92
       11
 66
     7
 43
1.0
 76
     1
 77
     6
 78
     2
 67
     7
 79
     6
170
     0
171
     0
290
     0
174
     0
 93
        1
 44
0.0
173
     0
291
     0
 45
0.0
1001
ACAD
1000
AcDbSavedByObjectVersion
1070
     0
  0
VISUALSTYLE
  5
37
102
{ACAD_REACTORS
330
2A
102
}
102
{ACAD_XDICTIONARY
360
208
102
}
330
2A
100
AcDbVisualStyle
  2
Thicken
 70
    13
 71
     2
 72
     2
 73
     0
 90
        0
 40
0.6
 41
30.0
 62
     5
 63
     7
 74
     1
 91
        4
 64
     7
 65
   257
 75
     1
175
     1
 42
1.0
 92
       12
 66
     7
 43
1.0
 76
     1
 77
     6
 78
     2
 67
     7
 79
     5
170
     0
171
     0
290
     0
174
     0
 93
        1
 44
0.0
173
     0
291
     1
 45
0.0
1001
ACAD
1000
AcDbSavedByObjectVersion
1070
     0
  0
VISUALSTYLE
  5
30
102
{ACAD_REACTORS
330
2A
102
}
102
{ACAD_XDICTIONARY
360
1FA
102
}
330
2A
100
AcDbVisualStyle
  2
Wireframe
 70
     5
 71
     0
 72
     2
 73
     0
 90
        0
 40
0.6
 41
30.0
 62
     5
 63
     7
 74
     1
 91
        4
 64
     7
 65
   257
 75
     1
175
     1
 42
1.0
 92
        0
 66
   257
 43
1.0
 76
     1
 77
     6
 78
     2
 67
     7
 79
     3
170
     0
171
     0
290
     0
174
     0
 93
        1
 44
0.0
173
     0
291
     0
 45
0.0
1001
ACAD
1000
AcDbSavedByObjectVersion
1070
     0
  0
VISUALSTYLE
  5
40
102
{ACAD_REACTORS
330
2A
102
}
102
{ACAD_XDICTIONARY
360
21A
102
}
330
2A
100
AcDbVisualStyle
  2
X-Ray
 70
    25
 71
     2
 72
     2
 73
     1
 90
        1
 40
0.5
 41
30.0
 62
     5
 63
     7
 74
     1
 91
        0
 64
     7
 65
   257
 75
     1
175
     1
 42
1.0
 92
        8
 66
     7
 43
1.0
 76
     1
 77
     6
 78
     2
 67
     7
 79
     3
170
     0
171
     0
290
     0
174
     0
 93
       13
 44
0.0
173
     0
291
     0
 45
0.0
1001
ACAD
1000
AcDbSavedByObjectVersion
1070
     0
  0
DICTIONARYVAR
  5
1EE
102
{ACAD_REACTORS
330
1E7
102
}
330
1E7
100
DictionaryVariables
280
     0
  1
1:1
  0
DICTIONARYVAR
  5
1EC
102
{ACAD_REACTORS
330
1E7
102
}
330
1E7
100
DictionaryVariables
280
     0
  1
2
  0
DICTIONARYVAR
  5
1ED
102
{ACAD_REACTORS
330
1E7
102
}
330
1E7
100
DictionaryVariables
280
     0
  1
1
  0
DICTIONARYVAR
  5
1EF
102
{ACAD_REACTORS
330
1E7
102
}
330
1E7
100
DictionaryVariables
280
     0
  1
1
  0
DICTIONARY
  5
222
330
45
100
AcDbDictionary
280
     1
281
     1
  3
ACAD_XREC_ROUNDTRIP
360
223
  0
DICTIONARY
  5
220
330
44
100
AcDbDictionary
280
     1
281
     1
  3
ACAD_XREC_ROUNDTRIP
360
221
  0
DICTIONARY
  5
224
330
46
100
AcDbDictionary
280
     1
281
     1
  3
ACAD_XREC_ROUNDTRIP
360
225
  0
DICTIONARY
  5
1F8
330
2F
100
AcDbDictionary
280
     1
281
     1
  3
ACAD_XREC_ROUNDTRIP
360
1F9
  0
DICTIONARY
  5
1FE
330
32
100
AcDbDictionary
280
     1
281
     1
  3
ACAD_XREC_ROUNDTRIP
360
1FF
  0
DICTIONARY
  5
206
330
36
100
AcDbDictionary
280
     1
281
     1
  3
ACAD_XREC_ROUNDTRIP
360
207
  0
DICTIONARY
  5
20E
330
3A
100
AcDbDictionary
280
     1
281
     1
  3
ACAD_XREC_ROUNDTRIP
360
20F
  0
DICTIONARY
  5
202
330
34
100
AcDbDictionary
280
     1
281
     1
  3
ACAD_XREC_ROUNDTRIP
360
203
  0
DICTIONARY
  5
204
330
35
100
AcDbDictionary
280
     1
281
     1
  3
ACAD_XREC_ROUNDTRIP
360
205
  0
DICTIONARY
  5
214
330
3D
100
AcDbDictionary
280
     1
281
     1
  3
ACAD_XREC_ROUNDTRIP
360
215
  0
DICTIONARY
  5
20C
330
39
100
AcDbDictionary
280
     1
281
     1
  3
ACAD_XREC_ROUNDTRIP
360
20D
  0
DICTIONARY
  5
1F0
330
2B
100
AcDbDictionary
280
     1
281
     1
  3
ACAD_XREC_ROUNDTRIP
360
1F1
  0
DICTIONARY
  5
1F2
330
2C
100
AcDbDictionary
280
     1
281
     1
  3
ACAD_XREC_ROUNDTRIP
360
1F3
  0
DICTIONARY
  5
1F4
330
2D
100
AcDbDictionary
280
     1
281
     1
  3
ACAD_XREC_ROUNDTRIP
360
1F5
  0
DICTIONARY
  5
1F6
330
2E
100
AcDbDictionary
280
     1
281
     1
  3
ACAD_XREC_ROUNDTRIP
360
1F7
  0
DICTIONARY
  5
1FC
330
31
100
AcDbDictionary
280
     1
281
     1
  3
ACAD_XREC_ROUNDTRIP
360
1FD
  0
DICTIONARY
  5
210
330
3B
100
AcDbDictionary
280
     1
281
     1
  3
ACAD_XREC_ROUNDTRIP
360
211
  0
DICTIONARY
  5
20A
330
38
100
AcDbDictionary
280
     1
281
     1
  3
ACAD_XREC_ROUNDTRIP
360
20B
  0
DICTIONARY
  5
212
330
3C
100
AcDbDictionary
280
     1
281
     1
  3
ACAD_XREC_ROUNDTRIP
360
213
  0
DICTIONARY
  5
200
330
33
100
AcDbDictionary
280
     1
281
     1
  3
ACAD_XREC_ROUNDTRIP
360
201
  0
DICTIONARY
  5
21E
330
42
100
AcDbDictionary
280
     1
281
     1
  3
ACAD_XREC_ROUNDTRIP
360
21F
  0
DICTIONARY
  5
21C
330
41
100
AcDbDictionary
280
     1
281
     1
  3
ACAD_XREC_ROUNDTRIP
360
21D
  0
DICTIONARY
  5
216
330
3E
100
AcDbDictionary
280
     1
281
     1
  3
ACAD_XREC_ROUNDTRIP
360
217
  0
DICTIONARY
  5
218
330
3F
100
AcDbDictionary
280
     1
281
     1
  3
ACAD_XREC_ROUNDTRIP
360
219
  0
DICTIONARY
  5
208
330
37
100
AcDbDictionary
280
     1
281
     1
  3
ACAD_XREC_ROUNDTRIP
360
209
  0
DICTIONARY
  5
1FA
330
30
100
AcDbDictionary
280
     1
281
     1
  3
ACAD_XREC_ROUNDTRIP
360
1FB
  0
DICTIONARY
  5
21A
330
40
100
AcDbDictionary
280
     1
281
     1
  3
ACAD_XREC_ROUNDTRIP
360
21B
  0
XRECORD
  5
223
102
{ACAD_REACTORS
330
222
102
}
330
222
100
AcDbXrecord
280
     1
102
MATERIAL
148
0.0
149
0.0
149
0.0
 93
        0
 94
      127
282
     0
 72
     1
 77
     1
171
     1
175
     1
179
     1
273
     0
  0
XRECORD
  5
221
102
{ACAD_REACTORS
330
220
102
}
330
220
100
AcDbXrecord
280
     1
102
MATERIAL
148
0.0
149
0.0
149
0.0
 93
        0
 94
      127
282
     0
 72
     1
 77
     1
171
     1
175
     1
179
     1
273
     0
  0
XRECORD
  5
225
102
{ACAD_REACTORS
330
224
102
}
330
224
100
AcDbXrecord
280
     1
102
MATERIAL
148
0.0
149
0.0
149
0.0
 93
        0
 94
      127
282
     0
 72
     1
 77
     1
171
     1
175
     1
179
     1
273
     0
  0
XRECORD
  5
1F9
102
{ACAD_REACTORS
330
1F8
102
}
330
1F8
100
AcDbXrecord
280
     1
102
RTVSPropertyOp0
 70
     1
102
RTVSPropertyOp1
 70
     1
102
RTVSPropertyOp2
 70
     1
102
RTVSPropertyOp3
 70
     1
102
RTVSPropertyOp4
 70
     1
102
RTVSPropertyOp5
 70
     1
102
RTVSPropertyOp6
 70
     1
102
RTVSPropertyOp7
 70
     1
102
RTVSPropertyOp8
 70
     1
102
RTVSPropertyOp9
 70
     1
102
RTVSPropertyOp10
 70
     1
102
RTVSPropertyOp11
 70
     1
102
RTVSPropertyOp12
 70
     1
102
RTVSPropertyOp13
 70
     1
102
RTVSPropertyOp14
 70
     1
102
RTVSPropertyOp15
 70
     1
102
RTVSPropertyOp16
 70
     1
102
RTVSPropertyOp17
 70
     1
102
RTVSPropertyOp18
 70
     1
102
RTVSPropertyOp19
 70
     1
102
RTVSPropertyOp20
 70
     1
102
RTVSPropertyOp21
 70
     1
102
RTVSPropertyOp22
 70
     1
102
RTVSPropertyOp23
 70
     1
102
RTVSPropertyOp24
 70
     1
102
RTVSPropertyOp25
 70
     1
102
RTVSPropertyOp26
 70
     1
102
RTVSPropertyOp27
 70
     1
102
RTVSPropertyOp28
 70
     1
102
RTVSPropertyOp29
 70
     1
102
RTVSPropertyOp30
 70
     1
102
RTVSPropertyOp31
 70
     1
102
RTVSPropertyOp32
 70
     1
102
RTVSPropertyOp33
 70
     1
102
RTVSPropertyOp34
 70
     1
102
RTVSPropertyOp35
 70
     1
102
RTVSPropertyOp36
 70
     1
102
RTVSPropertyOp37
 70
     1
102
RTVSPropertyOp38
 70
     1
102
RTVSPropertyOp39
 70
     1
102
RTVSPropertyOp40
 70
     1
102
RTVSPropertyOp41
 70
     1
102
RTVSPropertyOp42
 70
     1
102
RTVSPropertyOp43
 70
     1
102
RTVSPropertyOp44
 70
     1
102
RTVSPropertyOp45
 70
     1
102
RTVSPropertyOp46
 70
     1
102
RTVSPropertyOp47
 70
     1
102
RTVSPropertyOp48
 70
     1
102
RTVSPropertyOp49
 70
     1
102
RTVSPropertyOp50
 70
     1
102
RTVSPropertyOp51
 70
     0
102
RTVSPropertyOp52
 70
     0
102
RTVSPropertyOp53
 70
     1
102
RTVSPropertyOp54
 70
     1
102
RTVSPropertyOp55
 70
     1
102
RTVSPropertyOp56
 70
     1
102
RTVSPropertyOp57
 70
     1
102
RTVSPost2010Prop28
280
     1
102
RTVSPost2010PropOp28
 70
     1
102
RTVSPost2010Prop29
280
     1
102
RTVSPost2010PropOp29
 70
     1
102
RTVSPost2010Prop30
280
     0
102
RTVSPost2010PropOp30
 70
     1
102
RTVSPost2010Prop31
280
     0
102
RTVSPost2010PropOp31
 70
     1
102
RTVSPost2010Prop32
280
     0
102
RTVSPost2010PropOp32
 70
     1
102
RTVSPost2010Prop33
280
     0
102
RTVSPost2010PropOp33
 70
     1
102
RTVSPost2010Prop34
280
     0
102
RTVSPost2010PropOp34
 70
     1
102
RTVSPost2010Prop35
280
     0
102
RTVSPost2010PropOp35
 70
     1
102
RTVSPost2010Prop36
280
     0
102
RTVSPost2010PropOp36
 70
     1
102
RTVSPost2010Prop37
 90
       50
102
RTVSPost2010PropOp37
 70
     1
102
RTVSPost2010Prop38
140
0.0
102
RTVSPost2010PropOp38
 70
     1
102
RTVSPost2010Prop39
140
1.0
102
RTVSPost2010PropOp39
 70
     1
102
RTVSPost2010Prop40
 90
        0
102
RTVSPost2010PropOp40
 70
     1
102
RTVSPost2010Prop41ColorIndex
 90
       18
102
RTVSPost2010Prop41ColorRGB
 90
        0
102
RTVSPost2010PropOp41
 70
     1
102
RTVSPost2010Prop42
 90
       50
102
RTVSPost2010PropOp42
 70
     1
102
RTVSPost2010Prop43
 90
        3
102
RTVSPost2010PropOp43
 70
     1
102
RTVSPost2010Prop44ColorIndex
 90
        5
102
RTVSPost2010Prop44ColorRGB
 90
      255
102
RTVSPost2010PropOp44
 70
     1
102
RTVSPost2010Prop45
280
     0
102
RTVSPost2010PropOp45
 70
     1
102
RTVSPost2010Prop46
 90
       50
102
RTVSPost2010PropOp46
 70
     1
102
RTVSPost2010Prop47
 90
       50
102
RTVSPost2010PropOp47
 70
     1
102
RTVSPost2010Prop48
 90
       50
102
RTVSPost2010PropOp48
 70
     1
102
RTVSPost2010Prop49
280
     0
102
RTVSPost2010PropOp49
 70
     1
102
RTVSPost2010Prop50
 90
       50
102
RTVSPost2010PropOp50
 70
     1
102
RTVSPost2010Prop51ColorIndex
 90
      256
102
RTVSPost2010Prop51ColorRGB
 90
-16777216
102
RTVSPost2010PropOp51
 70
     0
102
RTVSPost2010Prop52
140
1.0
102
RTVSPost2010PropOp52
 70
     0
102
RTVSPost2010Prop53
 90
        2
102
RTVSPost2010PropOp53
 70
     1
102
RTVSPost2010Prop54
  1
strokes_ogs.tif
102
RTVSPost2010PropOp54
 70
     1
102
RTVSPost2010Prop55
280
     0
102
RTVSPost2010PropOp55
 70
     1
102
RTVSPost2010Prop56
140
1.0
102
RTVSPost2010PropOp56
 70
     1
102
RTVSPost2010Prop57
140
1.0
102
RTVSPost2010PropOp57
 70
     1
  0
XRECORD
  5
1FF
102
{ACAD_REACTORS
330
1FE
102
}
330
1FE
100
AcDbXrecord
280
     1
102
RTVSPropertyOp0
 70
     1
102
RTVSPropertyOp1
 70
     1
102
RTVSPropertyOp2
 70
     1
102
RTVSPropertyOp3
 70
     1
102
RTVSPropertyOp4
 70
     1
102
RTVSPropertyOp5
 70
     1
102
RTVSPropertyOp6
 70
     1
102
RTVSPropertyOp7
 70
     1
102
RTVSPropertyOp8
 70
     1
102
RTVSPropertyOp9
 70
     1
102
RTVSPropertyOp10
 70
     1
102
RTVSPropertyOp11
 70
     1
102
RTVSPropertyOp12
 70
     1
102
RTVSPropertyOp13
 70
     1
102
RTVSPropertyOp14
 70
     1
102
RTVSPropertyOp15
 70
     1
102
RTVSPropertyOp16
 70
     1
102
RTVSPropertyOp17
 70
     1
102
RTVSPropertyOp18
 70
     1
102
RTVSPropertyOp19
 70
     1
102
RTVSPropertyOp20
 70
     1
102
RTVSPropertyOp21
 70
     1
102
RTVSPropertyOp22
 70
     1
102
RTVSPropertyOp23
 70
     1
102
RTVSPropertyOp24
 70
     1
102
RTVSPropertyOp25
 70
     1
102
RTVSPropertyOp26
 70
     1
102
RTVSPropertyOp27
 70
     1
102
RTVSPropertyOp28
 70
     1
102
RTVSPropertyOp29
 70
     1
102
RTVSPropertyOp30
 70
     1
102
RTVSPropertyOp31
 70
     1
102
RTVSPropertyOp32
 70
     1
102
RTVSPropertyOp33
 70
     1
102
RTVSPropertyOp34
 70
     1
102
RTVSPropertyOp35
 70
     1
102
RTVSPropertyOp36
 70
     1
102
RTVSPropertyOp37
 70
     1
102
RTVSPropertyOp38
 70
     1
102
RTVSPropertyOp39
 70
     1
102
RTVSPropertyOp40
 70
     1
102
RTVSPropertyOp41
 70
     1
102
RTVSPropertyOp42
 70
     1
102
RTVSPropertyOp43
 70
     1
102
RTVSPropertyOp44
 70
     1
102
RTVSPropertyOp45
 70
     1
102
RTVSPropertyOp46
 70
     1
102
RTVSPropertyOp47
 70
     1
102
RTVSPropertyOp48
 70
     1
102
RTVSPropertyOp49
 70
     1
102
RTVSPropertyOp50
 70
     1
102
RTVSPropertyOp51
 70
     0
102
RTVSPropertyOp52
 70
     0
102
RTVSPropertyOp53
 70
     1
102
RTVSPropertyOp54
 70
     1
102
RTVSPropertyOp55
 70
     1
102
RTVSPropertyOp56
 70
     1
102
RTVSPropertyOp57
 70
     1
102
RTVSPost2010Prop28
280
     0
102
RTVSPost2010PropOp28
 70
     1
102
RTVSPost2010Prop29
280
     1
102
RTVSPost2010PropOp29
 70
     1
102
RTVSPost2010Prop30
280
     1
102
RTVSPost2010PropOp30
 70
     1
102
RTVSPost2010Prop31
280
     0
102
RTVSPost2010PropOp31
 70
     1
102
RTVSPost2010Prop32
280
     0
102
RTVSPost2010PropOp32
 70
     1
102
RTVSPost2010Prop33
280
     0
102
RTVSPost2010PropOp33
 70
     1
102
RTVSPost2010Prop34
280
     0
102
RTVSPost2010PropOp34
 70
     1
102
RTVSPost2010Prop35
280
     0
102
RTVSPost2010PropOp35
 70
     1
102
RTVSPost2010Prop36
280
     0
102
RTVSPost2010PropOp36
 70
     1
102
RTVSPost2010Prop37
 90
       50
102
RTVSPost2010PropOp37
 70
     1
102
RTVSPost2010Prop38
140
0.0
102
RTVSPost2010PropOp38
 70
     1
102
RTVSPost2010Prop39
140
1.0
102
RTVSPost2010PropOp39
 70
     1
102
RTVSPost2010Prop40
 90
        0
102
RTVSPost2010PropOp40
 70
     1
102
RTVSPost2010Prop41ColorIndex
 90
       18
102
RTVSPost2010Prop41ColorRGB
 90
        0
102
RTVSPost2010PropOp41
 70
     1
102
RTVSPost2010Prop42
 90
       50
102
RTVSPost2010PropOp42
 70
     1
102
RTVSPost2010Prop43
 90
        3
102
RTVSPost2010PropOp43
 70
     1
102
RTVSPost2010Prop44ColorIndex
 90
        5
102
RTVSPost2010Prop44ColorRGB
 90
      255
102
RTVSPost2010PropOp44
 70
     1
102
RTVSPost2010Prop45
280
     0
102
RTVSPost2010PropOp45
 70
     1
102
RTVSPost2010Prop46
 90
       50
102
RTVSPost2010PropOp46
 70
     1
102
RTVSPost2010Prop47
 90
       50
102
RTVSPost2010PropOp47
 70
     1
102
RTVSPost2010Prop48
 90
       50
102
RTVSPost2010PropOp48
 70
     1
102
RTVSPost2010Prop49
280
     0
102
RTVSPost2010PropOp49
 70
     1
102
RTVSPost2010Prop50
 90
       50
102
RTVSPost2010PropOp50
 70
     1
102
RTVSPost2010Prop51ColorIndex
 90
      256
102
RTVSPost2010Prop51ColorRGB
 90
-16777216
102
RTVSPost2010PropOp51
 70
     0
102
RTVSPost2010Prop52
140
1.0
102
RTVSPost2010PropOp52
 70
     0
102
RTVSPost2010Prop53
 90
        2
102
RTVSPost2010PropOp53
 70
     1
102
RTVSPost2010Prop54
  1
strokes_ogs.tif
102
RTVSPost2010PropOp54
 70
     1
102
RTVSPost2010Prop55
280
     0
102
RTVSPost2010PropOp55
 70
     1
102
RTVSPost2010Prop56
140
1.0
102
RTVSPost2010PropOp56
 70
     1
102
RTVSPost2010Prop57
140
1.0
102
RTVSPost2010PropOp57
 70
     1
  0
XRECORD
  5
207
102
{ACAD_REACTORS
330
206
102
}
330
206
100
AcDbXrecord
280
     1
102
RTVSPropertyOp0
 70
     1
102
RTVSPropertyOp1
 70
     1
102
RTVSPropertyOp2
 70
     1
102
RTVSPropertyOp3
 70
     1
102
RTVSPropertyOp4
 70
     1
102
RTVSPropertyOp5
 70
     1
102
RTVSPropertyOp6
 70
     1
102
RTVSPropertyOp7
 70
     1
102
RTVSPropertyOp8
 70
     1
102
RTVSPropertyOp9
 70
     1
102
RTVSPropertyOp10
 70
     1
102
RTVSPropertyOp11
 70
     1
102
RTVSPropertyOp12
 70
     1
102
RTVSPropertyOp13
 70
     1
102
RTVSPropertyOp14
 70
     1
102
RTVSPropertyOp15
 70
     1
102
RTVSPropertyOp16
 70
     1
102
RTVSPropertyOp17
 70
     1
102
RTVSPropertyOp18
 70
     1
102
RTVSPropertyOp19
 70
     1
102
RTVSPropertyOp20
 70
     1
102
RTVSPropertyOp21
 70
     1
102
RTVSPropertyOp22
 70
     1
102
RTVSPropertyOp23
 70
     1
102
RTVSPropertyOp24
 70
     1
102
RTVSPropertyOp25
 70
     1
102
RTVSPropertyOp26
 70
     1
102
RTVSPropertyOp27
 70
     1
102
RTVSPropertyOp28
 70
     1
102
RTVSPropertyOp29
 70
     1
102
RTVSPropertyOp30
 70
     1
102
RTVSPropertyOp31
 70
     1
102
RTVSPropertyOp32
 70
     1
102
RTVSPropertyOp33
 70
     1
102
RTVSPropertyOp34
 70
     1
102
RTVSPropertyOp35
 70
     1
102
RTVSPropertyOp36
 70
     1
102
RTVSPropertyOp37
 70
     1
102
RTVSPropertyOp38
 70
     1
102
RTVSPropertyOp39
 70
     1
102
RTVSPropertyOp40
 70
     1
102
RTVSPropertyOp41
 70
     1
102
RTVSPropertyOp42
 70
     1
102
RTVSPropertyOp43
 70
     1
102
RTVSPropertyOp44
 70
     1
102
RTVSPropertyOp45
 70
     1
102
RTVSPropertyOp46
 70
     1
102
RTVSPropertyOp47
 70
     1
102
RTVSPropertyOp48
 70
     1
102
RTVSPropertyOp49
 70
     1
102
RTVSPropertyOp50
 70
     1
102
RTVSPropertyOp51
 70
     0
102
RTVSPropertyOp52
 70
     0
102
RTVSPropertyOp53
 70
     1
102
RTVSPropertyOp54
 70
     1
102
RTVSPropertyOp55
 70
     1
102
RTVSPropertyOp56
 70
     1
102
RTVSPropertyOp57
 70
     1
102
RTVSPost2010Prop28
280
     0
102
RTVSPost2010PropOp28
 70
     1
102
RTVSPost2010Prop29
280
     1
102
RTVSPost2010PropOp29
 70
     1
102
RTVSPost2010Prop30
280
     1
102
RTVSPost2010PropOp30
 70
     1
102
RTVSPost2010Prop31
280
     0
102
RTVSPost2010PropOp31
 70
     1
102
RTVSPost2010Prop32
280
     0
102
RTVSPost2010PropOp32
 70
     1
102
RTVSPost2010Prop33
280
     0
102
RTVSPost2010PropOp33
 70
     1
102
RTVSPost2010Prop34
280
     0
102
RTVSPost2010PropOp34
 70
     1
102
RTVSPost2010Prop35
280
     0
102
RTVSPost2010PropOp35
 70
     1
102
RTVSPost2010Prop36
280
     0
102
RTVSPost2010PropOp36
 70
     1
102
RTVSPost2010Prop37
 90
       50
102
RTVSPost2010PropOp37
 70
     1
102
RTVSPost2010Prop38
140
0.0
102
RTVSPost2010PropOp38
 70
     1
102
RTVSPost2010Prop39
140
1.0
102
RTVSPost2010PropOp39
 70
     1
102
RTVSPost2010Prop40
 90
        0
102
RTVSPost2010PropOp40
 70
     1
102
RTVSPost2010Prop41ColorIndex
 90
       18
102
RTVSPost2010Prop41ColorRGB
 90
        0
102
RTVSPost2010PropOp41
 70
     1
102
RTVSPost2010Prop42
 90
       50
102
RTVSPost2010PropOp42
 70
     1
102
RTVSPost2010Prop43
 90
        3
102
RTVSPost2010PropOp43
 70
     1
102
RTVSPost2010Prop44ColorIndex
 90
        5
102
RTVSPost2010Prop44ColorRGB
 90
      255
102
RTVSPost2010PropOp44
 70
     1
102
RTVSPost2010Prop45
280
     0
102
RTVSPost2010PropOp45
 70
     1
102
RTVSPost2010Prop46
 90
       50
102
RTVSPost2010PropOp46
 70
     1
102
RTVSPost2010Prop47
 90
       50
102
RTVSPost2010PropOp47
 70
     1
102
RTVSPost2010Prop48
 90
       50
102
RTVSPost2010PropOp48
 70
     1
102
RTVSPost2010Prop49
280
     0
102
RTVSPost2010PropOp49
 70
     1
102
RTVSPost2010Prop50
 90
       50
102
RTVSPost2010PropOp50
 70
     1
102
RTVSPost2010Prop51ColorIndex
 90
      256
102
RTVSPost2010Prop51ColorRGB
 90
-16777216
102
RTVSPost2010PropOp51
 70
     0
102
RTVSPost2010Prop52
140
1.0
102
RTVSPost2010PropOp52
 70
     0
102
RTVSPost2010Prop53
 90
        2
102
RTVSPost2010PropOp53
 70
     1
102
RTVSPost2010Prop54
  1
strokes_ogs.tif
102
RTVSPost2010PropOp54
 70
     1
102
RTVSPost2010Prop55
280
     0
102
RTVSPost2010PropOp55
 70
     1
102
RTVSPost2010Prop56
140
1.0
102
RTVSPost2010PropOp56
 70
     1
102
RTVSPost2010Prop57
140
1.0
102
RTVSPost2010PropOp57
 70
     1
  0
XRECORD
  5
20F
102
{ACAD_REACTORS
330
20E
102
}
330
20E
100
AcDbXrecord
280
     1
102
RTVSPropertyOp0
 70
     1
102
RTVSPropertyOp1
 70
     1
102
RTVSPropertyOp2
 70
     1
102
RTVSPropertyOp3
 70
     1
102
RTVSPropertyOp4
 70
     1
102
RTVSPropertyOp5
 70
     1
102
RTVSPropertyOp6
 70
     1
102
RTVSPropertyOp7
 70
     1
102
RTVSPropertyOp8
 70
     1
102
RTVSPropertyOp9
 70
     1
102
RTVSPropertyOp10
 70
     1
102
RTVSPropertyOp11
 70
     1
102
RTVSPropertyOp12
 70
     1
102
RTVSPropertyOp13
 70
     1
102
RTVSPropertyOp14
 70
     1
102
RTVSPropertyOp15
 70
     1
102
RTVSPropertyOp16
 70
     1
102
RTVSPropertyOp17
 70
     1
102
RTVSPropertyOp18
 70
     1
102
RTVSPropertyOp19
 70
     1
102
RTVSPropertyOp20
 70
     1
102
RTVSPropertyOp21
 70
     1
102
RTVSPropertyOp22
 70
     1
102
RTVSPropertyOp23
 70
     1
102
RTVSPropertyOp24
 70
     1
102
RTVSPropertyOp25
 70
     1
102
RTVSPropertyOp26
 70
     1
102
RTVSPropertyOp27
 70
     1
102
RTVSPropertyOp28
 70
     1
102
RTVSPropertyOp29
 70
     1
102
RTVSPropertyOp30
 70
     1
102
RTVSPropertyOp31
 70
     1
102
RTVSPropertyOp32
 70
     1
102
RTVSPropertyOp33
 70
     1
102
RTVSPropertyOp34
 70
     1
102
RTVSPropertyOp35
 70
     1
102
RTVSPropertyOp36
 70
     1
102
RTVSPropertyOp37
 70
     1
102
RTVSPropertyOp38
 70
     1
102
RTVSPropertyOp39
 70
     1
102
RTVSPropertyOp40
 70
     1
102
RTVSPropertyOp41
 70
     1
102
RTVSPropertyOp42
 70
     1
102
RTVSPropertyOp43
 70
     1
102
RTVSPropertyOp44
 70
     1
102
RTVSPropertyOp45
 70
     1
102
RTVSPropertyOp46
 70
     1
102
RTVSPropertyOp47
 70
     1
102
RTVSPropertyOp48
 70
     1
102
RTVSPropertyOp49
 70
     1
102
RTVSPropertyOp50
 70
     1
102
RTVSPropertyOp51
 70
     0
102
RTVSPropertyOp52
 70
     0
102
RTVSPropertyOp53
 70
     1
102
RTVSPropertyOp54
 70
     1
102
RTVSPropertyOp55
 70
     1
102
RTVSPropertyOp56
 70
     1
102
RTVSPropertyOp57
 70
     1
102
RTVSPost2010Prop28
280
     0
102
RTVSPost2010PropOp28
 70
     1
102
RTVSPost2010Prop29
280
     1
102
RTVSPost2010PropOp29
 70
     1
102
RTVSPost2010Prop30
280
     1
102
RTVSPost2010PropOp30
 70
     1
102
RTVSPost2010Prop31
280
     0
102
RTVSPost2010PropOp31
 70
     1
102
RTVSPost2010Prop32
280
     0
102
RTVSPost2010PropOp32
 70
     1
102
RTVSPost2010Prop33
280
     0
102
RTVSPost2010PropOp33
 70
     1
102
RTVSPost2010Prop34
280
     0
102
RTVSPost2010PropOp34
 70
     1
102
RTVSPost2010Prop35
280
     0
102
RTVSPost2010PropOp35
 70
     1
102
RTVSPost2010Prop36
280
     0
102
RTVSPost2010PropOp36
 70
     1
102
RTVSPost2010Prop37
 90
       50
102
RTVSPost2010PropOp37
 70
     1
102
RTVSPost2010Prop38
140
0.0
102
RTVSPost2010PropOp38
 70
     1
102
RTVSPost2010Prop39
140
1.0
102
RTVSPost2010PropOp39
 70
     1
102
RTVSPost2010Prop40
 90
        0
102
RTVSPost2010PropOp40
 70
     1
102
RTVSPost2010Prop41ColorIndex
 90
       18
102
RTVSPost2010Prop41ColorRGB
 90
        0
102
RTVSPost2010PropOp41
 70
     1
102
RTVSPost2010Prop42
 90
       50
102
RTVSPost2010PropOp42
 70
     1
102
RTVSPost2010Prop43
 90
        3
102
RTVSPost2010PropOp43
 70
     1
102
RTVSPost2010Prop44ColorIndex
 90
        5
102
RTVSPost2010Prop44ColorRGB
 90
      255
102
RTVSPost2010PropOp44
 70
     1
102
RTVSPost2010Prop45
280
     0
102
RTVSPost2010PropOp45
 70
     1
102
RTVSPost2010Prop46
 90
       50
102
RTVSPost2010PropOp46
 70
     1
102
RTVSPost2010Prop47
 90
       50
102
RTVSPost2010PropOp47
 70
     1
102
RTVSPost2010Prop48
 90
       50
102
RTVSPost2010PropOp48
 70
     1
102
RTVSPost2010Prop49
280
     0
102
RTVSPost2010PropOp49
 70
     1
102
RTVSPost2010Prop50
 90
       50
102
RTVSPost2010PropOp50
 70
     1
102
RTVSPost2010Prop51ColorIndex
 90
      256
102
RTVSPost2010Prop51ColorRGB
 90
-16777216
102
RTVSPost2010PropOp51
 70
     0
102
RTVSPost2010Prop52
140
1.0
102
RTVSPost2010PropOp52
 70
     0
102
RTVSPost2010Prop53
 90
        2
102
RTVSPost2010PropOp53
 70
     1
102
RTVSPost2010Prop54
  1
strokes_ogs.tif
102
RTVSPost2010PropOp54
 70
     1
102
RTVSPost2010Prop55
280
     0
102
RTVSPost2010PropOp55
 70
     1
102
RTVSPost2010Prop56
140
1.0
102
RTVSPost2010PropOp56
 70
     1
102
RTVSPost2010Prop57
140
1.0
102
RTVSPost2010PropOp57
 70
     1
  0
XRECORD
  5
203
102
{ACAD_REACTORS
330
202
102
}
330
202
100
AcDbXrecord
280
     1
102
RTVSPropertyOp0
 70
     1
102
RTVSPropertyOp1
 70
     1
102
RTVSPropertyOp2
 70
     1
102
RTVSPropertyOp3
 70
     1
102
RTVSPropertyOp4
 70
     1
102
RTVSPropertyOp5
 70
     1
102
RTVSPropertyOp6
 70
     1
102
RTVSPropertyOp7
 70
     1
102
RTVSPropertyOp8
 70
     1
102
RTVSPropertyOp9
 70
     1
102
RTVSPropertyOp10
 70
     1
102
RTVSPropertyOp11
 70
     1
102
RTVSPropertyOp12
 70
     1
102
RTVSPropertyOp13
 70
     1
102
RTVSPropertyOp14
 70
     1
102
RTVSPropertyOp15
 70
     1
102
RTVSPropertyOp16
 70
     1
102
RTVSPropertyOp17
 70
     1
102
RTVSPropertyOp18
 70
     1
102
RTVSPropertyOp19
 70
     1
102
RTVSPropertyOp20
 70
     1
102
RTVSPropertyOp21
 70
     1
102
RTVSPropertyOp22
 70
     1
102
RTVSPropertyOp23
 70
     1
102
RTVSPropertyOp24
 70
     1
102
RTVSPropertyOp25
 70
     1
102
RTVSPropertyOp26
 70
     1
102
RTVSPropertyOp27
 70
     1
102
RTVSPropertyOp28
 70
     1
102
RTVSPropertyOp29
 70
     1
102
RTVSPropertyOp30
 70
     1
102
RTVSPropertyOp31
 70
     1
102
RTVSPropertyOp32
 70
     1
102
RTVSPropertyOp33
 70
     1
102
RTVSPropertyOp34
 70
     1
102
RTVSPropertyOp35
 70
     1
102
RTVSPropertyOp36
 70
     1
102
RTVSPropertyOp37
 70
     1
102
RTVSPropertyOp38
 70
     1
102
RTVSPropertyOp39
 70
     1
102
RTVSPropertyOp40
 70
     1
102
RTVSPropertyOp41
 70
     1
102
RTVSPropertyOp42
 70
     1
102
RTVSPropertyOp43
 70
     1
102
RTVSPropertyOp44
 70
     1
102
RTVSPropertyOp45
 70
     1
102
RTVSPropertyOp46
 70
     1
102
RTVSPropertyOp47
 70
     1
102
RTVSPropertyOp48
 70
     1
102
RTVSPropertyOp49
 70
     1
102
RTVSPropertyOp50
 70
     1
102
RTVSPropertyOp51
 70
     0
102
RTVSPropertyOp52
 70
     0
102
RTVSPropertyOp53
 70
     1
102
RTVSPropertyOp54
 70
     1
102
RTVSPropertyOp55
 70
     1
102
RTVSPropertyOp56
 70
     1
102
RTVSPropertyOp57
 70
     1
102
RTVSPost2010Prop28
280
     0
102
RTVSPost2010PropOp28
 70
     1
102
RTVSPost2010Prop29
280
     1
102
RTVSPost2010PropOp29
 70
     1
102
RTVSPost2010Prop30
280
     1
102
RTVSPost2010PropOp30
 70
     1
102
RTVSPost2010Prop31
280
     0
102
RTVSPost2010PropOp31
 70
     1
102
RTVSPost2010Prop32
280
     0
102
RTVSPost2010PropOp32
 70
     1
102
RTVSPost2010Prop33
280
     0
102
RTVSPost2010PropOp33
 70
     1
102
RTVSPost2010Prop34
280
     0
102
RTVSPost2010PropOp34
 70
     1
102
RTVSPost2010Prop35
280
     0
102
RTVSPost2010PropOp35
 70
     1
102
RTVSPost2010Prop36
280
     0
102
RTVSPost2010PropOp36
 70
     1
102
RTVSPost2010Prop37
 90
       50
102
RTVSPost2010PropOp37
 70
     1
102
RTVSPost2010Prop38
140
0.0
102
RTVSPost2010PropOp38
 70
     1
102
RTVSPost2010Prop39
140
1.0
102
RTVSPost2010PropOp39
 70
     1
102
RTVSPost2010Prop40
 90
        0
102
RTVSPost2010PropOp40
 70
     1
102
RTVSPost2010Prop41ColorIndex
 90
       18
102
RTVSPost2010Prop41ColorRGB
 90
        0
102
RTVSPost2010PropOp41
 70
     1
102
RTVSPost2010Prop42
 90
       50
102
RTVSPost2010PropOp42
 70
     1
102
RTVSPost2010Prop43
 90
        3
102
RTVSPost2010PropOp43
 70
     1
102
RTVSPost2010Prop44ColorIndex
 90
        5
102
RTVSPost2010Prop44ColorRGB
 90
      255
102
RTVSPost2010PropOp44
 70
     1
102
RTVSPost2010Prop45
280
     0
102
RTVSPost2010PropOp45
 70
     1
102
RTVSPost2010Prop46
 90
       50
102
RTVSPost2010PropOp46
 70
     1
102
RTVSPost2010Prop47
 90
       50
102
RTVSPost2010PropOp47
 70
     1
102
RTVSPost2010Prop48
 90
       50
102
RTVSPost2010PropOp48
 70
     1
102
RTVSPost2010Prop49
280
     0
102
RTVSPost2010PropOp49
 70
     1
102
RTVSPost2010Prop50
 90
       50
102
RTVSPost2010PropOp50
 70
     1
102
RTVSPost2010Prop51ColorIndex
 90
      256
102
RTVSPost2010Prop51ColorRGB
 90
-16777216
102
RTVSPost2010PropOp51
 70
     0
102
RTVSPost2010Prop52
140
1.0
102
RTVSPost2010PropOp52
 70
     0
102
RTVSPost2010Prop53
 90
        2
102
RTVSPost2010PropOp53
 70
     1
102
RTVSPost2010Prop54
  1
strokes_ogs.tif
102
RTVSPost2010PropOp54
 70
     1
102
RTVSPost2010Prop55
280
     0
102
RTVSPost2010PropOp55
 70
     1
102
RTVSPost2010Prop56
140
1.0
102
RTVSPost2010PropOp56
 70
     1
102
RTVSPost2010Prop57
140
1.0
102
RTVSPost2010PropOp57
 70
     1
  0
XRECORD
  5
205
102
{ACAD_REACTORS
330
204
102
}
330
204
100
AcDbXrecord
280
     1
102
RTVSPropertyOp0
 70
     1
102
RTVSPropertyOp1
 70
     1
102
RTVSPropertyOp2
 70
     1
102
RTVSPropertyOp3
 70
     1
102
RTVSPropertyOp4
 70
     1
102
RTVSPropertyOp5
 70
     1
102
RTVSPropertyOp6
 70
     1
102
RTVSPropertyOp7
 70
     1
102
RTVSPropertyOp8
 70
     1
102
RTVSPropertyOp9
 70
     1
102
RTVSPropertyOp10
 70
     1
102
RTVSPropertyOp11
 70
     1
102
RTVSPropertyOp12
 70
     1
102
RTVSPropertyOp13
 70
     1
102
RTVSPropertyOp14
 70
     1
102
RTVSPropertyOp15
 70
     1
102
RTVSPropertyOp16
 70
     1
102
RTVSPropertyOp17
 70
     1
102
RTVSPropertyOp18
 70
     1
102
RTVSPropertyOp19
 70
     1
102
RTVSPropertyOp20
 70
     1
102
RTVSPropertyOp21
 70
     1
102
RTVSPropertyOp22
 70
     1
102
RTVSPropertyOp23
 70
     1
102
RTVSPropertyOp24
 70
     1
102
RTVSPropertyOp25
 70
     1
102
RTVSPropertyOp26
 70
     1
102
RTVSPropertyOp27
 70
     1
102
RTVSPropertyOp28
 70
     1
102
RTVSPropertyOp29
 70
     1
102
RTVSPropertyOp30
 70
     1
102
RTVSPropertyOp31
 70
     1
102
RTVSPropertyOp32
 70
     1
102
RTVSPropertyOp33
 70
     1
102
RTVSPropertyOp34
 70
     1
102
RTVSPropertyOp35
 70
     1
102
RTVSPropertyOp36
 70
     1
102
RTVSPropertyOp37
 70
     1
102
RTVSPropertyOp38
 70
     1
102
RTVSPropertyOp39
 70
     1
102
RTVSPropertyOp40
 70
     1
102
RTVSPropertyOp41
 70
     1
102
RTVSPropertyOp42
 70
     1
102
RTVSPropertyOp43
 70
     1
102
RTVSPropertyOp44
 70
     1
102
RTVSPropertyOp45
 70
     1
102
RTVSPropertyOp46
 70
     1
102
RTVSPropertyOp47
 70
     1
102
RTVSPropertyOp48
 70
     1
102
RTVSPropertyOp49
 70
     1
102
RTVSPropertyOp50
 70
     1
102
RTVSPropertyOp51
 70
     0
102
RTVSPropertyOp52
 70
     0
102
RTVSPropertyOp53
 70
     1
102
RTVSPropertyOp54
 70
     1
102
RTVSPropertyOp55
 70
     1
102
RTVSPropertyOp56
 70
     1
102
RTVSPropertyOp57
 70
     1
102
RTVSPost2010Prop28
280
     0
102
RTVSPost2010PropOp28
 70
     1
102
RTVSPost2010Prop29
280
     1
102
RTVSPost2010PropOp29
 70
     1
102
RTVSPost2010Prop30
280
     1
102
RTVSPost2010PropOp30
 70
     1
102
RTVSPost2010Prop31
280
     0
102
RTVSPost2010PropOp31
 70
     1
102
RTVSPost2010Prop32
280
     0
102
RTVSPost2010PropOp32
 70
     1
102
RTVSPost2010Prop33
280
     0
102
RTVSPost2010PropOp33
 70
     1
102
RTVSPost2010Prop34
280
     0
102
RTVSPost2010PropOp34
 70
     1
102
RTVSPost2010Prop35
280
     0
102
RTVSPost2010PropOp35
 70
     1
102
RTVSPost2010Prop36
280
     0
102
RTVSPost2010PropOp36
 70
     1
102
RTVSPost2010Prop37
 90
       50
102
RTVSPost2010PropOp37
 70
     1
102
RTVSPost2010Prop38
140
0.0
102
RTVSPost2010PropOp38
 70
     1
102
RTVSPost2010Prop39
140
1.0
102
RTVSPost2010PropOp39
 70
     1
102
RTVSPost2010Prop40
 90
        0
102
RTVSPost2010PropOp40
 70
     1
102
RTVSPost2010Prop41ColorIndex
 90
       18
102
RTVSPost2010Prop41ColorRGB
 90
        0
102
RTVSPost2010PropOp41
 70
     1
102
RTVSPost2010Prop42
 90
       50
102
RTVSPost2010PropOp42
 70
     1
102
RTVSPost2010Prop43
 90
        3
102
RTVSPost2010PropOp43
 70
     1
102
RTVSPost2010Prop44ColorIndex
 90
        5
102
RTVSPost2010Prop44ColorRGB
 90
      255
102
RTVSPost2010PropOp44
 70
     1
102
RTVSPost2010Prop45
280
     0
102
RTVSPost2010PropOp45
 70
     1
102
RTVSPost2010Prop46
 90
       50
102
RTVSPost2010PropOp46
 70
     1
102
RTVSPost2010Prop47
 90
       50
102
RTVSPost2010PropOp47
 70
     1
102
RTVSPost2010Prop48
 90
       50
102
RTVSPost2010PropOp48
 70
     1
102
RTVSPost2010Prop49
280
     0
102
RTVSPost2010PropOp49
 70
     1
102
RTVSPost2010Prop50
 90
       50
102
RTVSPost2010PropOp50
 70
     1
102
RTVSPost2010Prop51ColorIndex
 90
      256
102
RTVSPost2010Prop51ColorRGB
 90
-16777216
102
RTVSPost2010PropOp51
 70
     0
102
RTVSPost2010Prop52
140
1.0
102
RTVSPost2010PropOp52
 70
     0
102
RTVSPost2010Prop53
 90
        2
102
RTVSPost2010PropOp53
 70
     1
102
RTVSPost2010Prop54
  1
strokes_ogs.tif
102
RTVSPost2010PropOp54
 70
     1
102
RTVSPost2010Prop55
280
     0
102
RTVSPost2010PropOp55
 70
     1
102
RTVSPost2010Prop56
140
1.0
102
RTVSPost2010PropOp56
 70
     1
102
RTVSPost2010Prop57
140
1.0
102
RTVSPost2010PropOp57
 70
     1
  0
XRECORD
  5
215
102
{ACAD_REACTORS
330
214
102
}
330
214
100
AcDbXrecord
280
     1
102
RTVSPropertyOp0
 70
     0
102
RTVSPropertyOp1
 70
     0
102
RTVSPropertyOp2
 70
     0
102
RTVSPropertyOp3
 70
     0
102
RTVSPropertyOp4
 70
     0
102
RTVSPropertyOp5
 70
     0
102
RTVSPropertyOp6
 70
     0
102
RTVSPropertyOp7
 70
     0
102
RTVSPropertyOp8
 70
     0
102
RTVSPropertyOp9
 70
     0
102
RTVSPropertyOp10
 70
     0
102
RTVSPropertyOp11
 70
     0
102
RTVSPropertyOp12
 70
     0
102
RTVSPropertyOp13
 70
     0
102
RTVSPropertyOp14
 70
     2
102
RTVSPropertyOp15
 70
     0
102
RTVSPropertyOp16
 70
     0
102
RTVSPropertyOp17
 70
     0
102
RTVSPropertyOp18
 70
     0
102
RTVSPropertyOp19
 70
     0
102
RTVSPropertyOp20
 70
     0
102
RTVSPropertyOp21
 70
     0
102
RTVSPropertyOp22
 70
     0
102
RTVSPropertyOp23
 70
     0
102
RTVSPropertyOp24
 70
     0
102
RTVSPropertyOp25
 70
     0
102
RTVSPropertyOp26
 70
     0
102
RTVSPropertyOp27
 70
     0
102
RTVSPropertyOp28
 70
     0
102
RTVSPropertyOp29
 70
     0
102
RTVSPropertyOp30
 70
     0
102
RTVSPropertyOp31
 70
     0
102
RTVSPropertyOp32
 70
     0
102
RTVSPropertyOp33
 70
     0
102
RTVSPropertyOp34
 70
     0
102
RTVSPropertyOp35
 70
     0
102
RTVSPropertyOp36
 70
     0
102
RTVSPropertyOp37
 70
     0
102
RTVSPropertyOp38
 70
     0
102
RTVSPropertyOp39
 70
     0
102
RTVSPropertyOp40
 70
     0
102
RTVSPropertyOp41
 70
     0
102
RTVSPropertyOp42
 70
     0
102
RTVSPropertyOp43
 70
     0
102
RTVSPropertyOp44
 70
     0
102
RTVSPropertyOp45
 70
     0
102
RTVSPropertyOp46
 70
     0
102
RTVSPropertyOp47
 70
     0
102
RTVSPropertyOp48
 70
     0
102
RTVSPropertyOp49
 70
     0
102
RTVSPropertyOp50
 70
     0
102
RTVSPropertyOp51
 70
     0
102
RTVSPropertyOp52
 70
     0
102
RTVSPropertyOp53
 70
     0
102
RTVSPropertyOp54
 70
     0
102
RTVSPropertyOp55
 70
     0
102
RTVSPropertyOp56
 70
     0
102
RTVSPropertyOp57
 70
     0
102
RTVSPost2010Prop28
280
     0
102
RTVSPost2010PropOp28
 70
     0
102
RTVSPost2010Prop29
280
     1
102
RTVSPost2010PropOp29
 70
     0
102
RTVSPost2010Prop30
280
     1
102
RTVSPost2010PropOp30
 70
     0
102
RTVSPost2010Prop31
280
     0
102
RTVSPost2010PropOp31
 70
     0
102
RTVSPost2010Prop32
280
     0
102
RTVSPost2010PropOp32
 70
     0
102
RTVSPost2010Prop33
280
     0
102
RTVSPost2010PropOp33
 70
     0
102
RTVSPost2010Prop34
280
     0
102
RTVSPost2010PropOp34
 70
     0
102
RTVSPost2010Prop35
280
     0
102
RTVSPost2010PropOp35
 70
     0
102
RTVSPost2010Prop36
280
     0
102
RTVSPost2010PropOp36
 70
     0
102
RTVSPost2010Prop37
 90
       50
102
RTVSPost2010PropOp37
 70
     0
102
RTVSPost2010Prop38
140
0.0
102
RTVSPost2010PropOp38
 70
     0
102
RTVSPost2010Prop39
140
1.0
102
RTVSPost2010PropOp39
 70
     0
102
RTVSPost2010Prop40
 90
        0
102
RTVSPost2010PropOp40
 70
     0
102
RTVSPost2010Prop41ColorIndex
 90
       18
102
RTVSPost2010Prop41ColorRGB
 90
        0
102
RTVSPost2010PropOp41
 70
     0
102
RTVSPost2010Prop42
 90
       50
102
RTVSPost2010PropOp42
 70
     0
102
RTVSPost2010Prop43
 90
        3
102
RTVSPost2010PropOp43
 70
     0
102
RTVSPost2010Prop44ColorIndex
 90
        5
102
RTVSPost2010Prop44ColorRGB
 90
      255
102
RTVSPost2010PropOp44
 70
     0
102
RTVSPost2010Prop45
280
     0
102
RTVSPost2010PropOp45
 70
     0
102
RTVSPost2010Prop46
 90
       50
102
RTVSPost2010PropOp46
 70
     0
102
RTVSPost2010Prop47
 90
       50
102
RTVSPost2010PropOp47
 70
     0
102
RTVSPost2010Prop48
 90
       50
102
RTVSPost2010PropOp48
 70
     0
102
RTVSPost2010Prop49
280
     0
102
RTVSPost2010PropOp49
 70
     0
102
RTVSPost2010Prop50
 90
       50
102
RTVSPost2010PropOp50
 70
     0
102
RTVSPost2010Prop51ColorIndex
 90
      256
102
RTVSPost2010Prop51ColorRGB
 90
-16777216
102
RTVSPost2010PropOp51
 70
     0
102
RTVSPost2010Prop52
140
1.0
102
RTVSPost2010PropOp52
 70
     0
102
RTVSPost2010Prop53
 90
        2
102
RTVSPost2010PropOp53
 70
     0
102
RTVSPost2010Prop54
  1
strokes_ogs.tif
102
RTVSPost2010PropOp54
 70
     0
102
RTVSPost2010Prop55
280
     0
102
RTVSPost2010PropOp55
 70
     0
102
RTVSPost2010Prop56
140
1.0
102
RTVSPost2010PropOp56
 70
     0
102
RTVSPost2010Prop57
140
1.0
102
RTVSPost2010PropOp57
 70
     0
  0
XRECORD
  5
20D
102
{ACAD_REACTORS
330
20C
102
}
330
20C
100
AcDbXrecord
280
     1
102
RTVSPropertyOp0
 70
     1
102
RTVSPropertyOp1
 70
     1
102
RTVSPropertyOp2
 70
     1
102
RTVSPropertyOp3
 70
     1
102
RTVSPropertyOp4
 70
     1
102
RTVSPropertyOp5
 70
     1
102
RTVSPropertyOp6
 70
     1
102
RTVSPropertyOp7
 70
     1
102
RTVSPropertyOp8
 70
     1
102
RTVSPropertyOp9
 70
     1
102
RTVSPropertyOp10
 70
     1
102
RTVSPropertyOp11
 70
     1
102
RTVSPropertyOp12
 70
     1
102
RTVSPropertyOp13
 70
     1
102
RTVSPropertyOp14
 70
     1
102
RTVSPropertyOp15
 70
     1
102
RTVSPropertyOp16
 70
     1
102
RTVSPropertyOp17
 70
     1
102
RTVSPropertyOp18
 70
     1
102
RTVSPropertyOp19
 70
     1
102
RTVSPropertyOp20
 70
     1
102
RTVSPropertyOp21
 70
     1
102
RTVSPropertyOp22
 70
     1
102
RTVSPropertyOp23
 70
     1
102
RTVSPropertyOp24
 70
     1
102
RTVSPropertyOp25
 70
     1
102
RTVSPropertyOp26
 70
     1
102
RTVSPropertyOp27
 70
     1
102
RTVSPropertyOp28
 70
     1
102
RTVSPropertyOp29
 70
     1
102
RTVSPropertyOp30
 70
     1
102
RTVSPropertyOp31
 70
     1
102
RTVSPropertyOp32
 70
     1
102
RTVSPropertyOp33
 70
     1
102
RTVSPropertyOp34
 70
     1
102
RTVSPropertyOp35
 70
     1
102
RTVSPropertyOp36
 70
     1
102
RTVSPropertyOp37
 70
     1
102
RTVSPropertyOp38
 70
     1
102
RTVSPropertyOp39
 70
     1
102
RTVSPropertyOp40
 70
     1
102
RTVSPropertyOp41
 70
     1
102
RTVSPropertyOp42
 70
     1
102
RTVSPropertyOp43
 70
     1
102
RTVSPropertyOp44
 70
     1
102
RTVSPropertyOp45
 70
     1
102
RTVSPropertyOp46
 70
     1
102
RTVSPropertyOp47
 70
     1
102
RTVSPropertyOp48
 70
     1
102
RTVSPropertyOp49
 70
     1
102
RTVSPropertyOp50
 70
     1
102
RTVSPropertyOp51
 70
     0
102
RTVSPropertyOp52
 70
     0
102
RTVSPropertyOp53
 70
     1
102
RTVSPropertyOp54
 70
     1
102
RTVSPropertyOp55
 70
     1
102
RTVSPropertyOp56
 70
     1
102
RTVSPropertyOp57
 70
     1
102
RTVSPost2010Prop28
280
     0
102
RTVSPost2010PropOp28
 70
     1
102
RTVSPost2010Prop29
280
     1
102
RTVSPost2010PropOp29
 70
     1
102
RTVSPost2010Prop30
280
     1
102
RTVSPost2010PropOp30
 70
     1
102
RTVSPost2010Prop31
280
     0
102
RTVSPost2010PropOp31
 70
     1
102
RTVSPost2010Prop32
280
     0
102
RTVSPost2010PropOp32
 70
     1
102
RTVSPost2010Prop33
280
     0
102
RTVSPost2010PropOp33
 70
     1
102
RTVSPost2010Prop34
280
     0
102
RTVSPost2010PropOp34
 70
     1
102
RTVSPost2010Prop35
280
     0
102
RTVSPost2010PropOp35
 70
     1
102
RTVSPost2010Prop36
280
     0
102
RTVSPost2010PropOp36
 70
     1
102
RTVSPost2010Prop37
 90
       50
102
RTVSPost2010PropOp37
 70
     1
102
RTVSPost2010Prop38
140
0.0
102
RTVSPost2010PropOp38
 70
     1
102
RTVSPost2010Prop39
140
1.0
102
RTVSPost2010PropOp39
 70
     1
102
RTVSPost2010Prop40
 90
        0
102
RTVSPost2010PropOp40
 70
     1
102
RTVSPost2010Prop41ColorIndex
 90
       18
102
RTVSPost2010Prop41ColorRGB
 90
        0
102
RTVSPost2010PropOp41
 70
     1
102
RTVSPost2010Prop42
 90
       50
102
RTVSPost2010PropOp42
 70
     1
102
RTVSPost2010Prop43
 90
        3
102
RTVSPost2010PropOp43
 70
     1
102
RTVSPost2010Prop44ColorIndex
 90
        5
102
RTVSPost2010Prop44ColorRGB
 90
      255
102
RTVSPost2010PropOp44
 70
     1
102
RTVSPost2010Prop45
280
     0
102
RTVSPost2010PropOp45
 70
     1
102
RTVSPost2010Prop46
 90
       50
102
RTVSPost2010PropOp46
 70
     1
102
RTVSPost2010Prop47
 90
       50
102
RTVSPost2010PropOp47
 70
     1
102
RTVSPost2010Prop48
 90
       50
102
RTVSPost2010PropOp48
 70
     1
102
RTVSPost2010Prop49
280
     0
102
RTVSPost2010PropOp49
 70
     1
102
RTVSPost2010Prop50
 90
       50
102
RTVSPost2010PropOp50
 70
     1
102
RTVSPost2010Prop51ColorIndex
 90
      256
102
RTVSPost2010Prop51ColorRGB
 90
-16777216
102
RTVSPost2010PropOp51
 70
     0
102
RTVSPost2010Prop52
140
1.0
102
RTVSPost2010PropOp52
 70
     0
102
RTVSPost2010Prop53
 90
        2
102
RTVSPost2010PropOp53
 70
     1
102
RTVSPost2010Prop54
  1
strokes_ogs.tif
102
RTVSPost2010PropOp54
 70
     1
102
RTVSPost2010Prop55
280
     0
102
RTVSPost2010PropOp55
 70
     1
102
RTVSPost2010Prop56
140
1.0
102
RTVSPost2010PropOp56
 70
     1
102
RTVSPost2010Prop57
140
1.0
102
RTVSPost2010PropOp57
 70
     1
  0
XRECORD
  5
1F1
102
{ACAD_REACTORS
330
1F0
102
}
330
1F0
100
AcDbXrecord
280
     1
102
RTVSPropertyOp0
 70
     1
102
RTVSPropertyOp1
 70
     1
102
RTVSPropertyOp2
 70
     1
102
RTVSPropertyOp3
 70
     1
102
RTVSPropertyOp4
 70
     1
102
RTVSPropertyOp5
 70
     1
102
RTVSPropertyOp6
 70
     1
102
RTVSPropertyOp7
 70
     1
102
RTVSPropertyOp8
 70
     1
102
RTVSPropertyOp9
 70
     1
102
RTVSPropertyOp10
 70
     1
102
RTVSPropertyOp11
 70
     1
102
RTVSPropertyOp12
 70
     1
102
RTVSPropertyOp13
 70
     1
102
RTVSPropertyOp14
 70
     1
102
RTVSPropertyOp15
 70
     1
102
RTVSPropertyOp16
 70
     1
102
RTVSPropertyOp17
 70
     1
102
RTVSPropertyOp18
 70
     1
102
RTVSPropertyOp19
 70
     1
102
RTVSPropertyOp20
 70
     1
102
RTVSPropertyOp21
 70
     1
102
RTVSPropertyOp22
 70
     1
102
RTVSPropertyOp23
 70
     1
102
RTVSPropertyOp24
 70
     1
102
RTVSPropertyOp25
 70
     1
102
RTVSPropertyOp26
 70
     1
102
RTVSPropertyOp27
 70
     1
102
RTVSPropertyOp28
 70
     1
102
RTVSPropertyOp29
 70
     1
102
RTVSPropertyOp30
 70
     1
102
RTVSPropertyOp31
 70
     1
102
RTVSPropertyOp32
 70
     1
102
RTVSPropertyOp33
 70
     1
102
RTVSPropertyOp34
 70
     1
102
RTVSPropertyOp35
 70
     1
102
RTVSPropertyOp36
 70
     1
102
RTVSPropertyOp37
 70
     1
102
RTVSPropertyOp38
 70
     1
102
RTVSPropertyOp39
 70
     1
102
RTVSPropertyOp40
 70
     1
102
RTVSPropertyOp41
 70
     1
102
RTVSPropertyOp42
 70
     1
102
RTVSPropertyOp43
 70
     1
102
RTVSPropertyOp44
 70
     1
102
RTVSPropertyOp45
 70
     1
102
RTVSPropertyOp46
 70
     1
102
RTVSPropertyOp47
 70
     1
102
RTVSPropertyOp48
 70
     1
102
RTVSPropertyOp49
 70
     1
102
RTVSPropertyOp50
 70
     1
102
RTVSPropertyOp51
 70
     0
102
RTVSPropertyOp52
 70
     0
102
RTVSPropertyOp53
 70
     1
102
RTVSPropertyOp54
 70
     1
102
RTVSPropertyOp55
 70
     1
102
RTVSPropertyOp56
 70
     1
102
RTVSPropertyOp57
 70
     1
102
RTVSPost2010Prop28
280
     0
102
RTVSPost2010PropOp28
 70
     1
102
RTVSPost2010Prop29
280
     1
102
RTVSPost2010PropOp29
 70
     1
102
RTVSPost2010Prop30
280
     1
102
RTVSPost2010PropOp30
 70
     1
102
RTVSPost2010Prop31
280
     0
102
RTVSPost2010PropOp31
 70
     1
102
RTVSPost2010Prop32
280
     0
102
RTVSPost2010PropOp32
 70
     1
102
RTVSPost2010Prop33
280
     0
102
RTVSPost2010PropOp33
 70
     1
102
RTVSPost2010Prop34
280
     0
102
RTVSPost2010PropOp34
 70
     1
102
RTVSPost2010Prop35
280
     0
102
RTVSPost2010PropOp35
 70
     1
102
RTVSPost2010Prop36
280
     0
102
RTVSPost2010PropOp36
 70
     1
102
RTVSPost2010Prop37
 90
       50
102
RTVSPost2010PropOp37
 70
     1
102
RTVSPost2010Prop38
140
0.0
102
RTVSPost2010PropOp38
 70
     1
102
RTVSPost2010Prop39
140
1.0
102
RTVSPost2010PropOp39
 70
     1
102
RTVSPost2010Prop40
 90
        0
102
RTVSPost2010PropOp40
 70
     1
102
RTVSPost2010Prop41ColorIndex
 90
       18
102
RTVSPost2010Prop41ColorRGB
 90
        0
102
RTVSPost2010PropOp41
 70
     1
102
RTVSPost2010Prop42
 90
       50
102
RTVSPost2010PropOp42
 70
     1
102
RTVSPost2010Prop43
 90
        3
102
RTVSPost2010PropOp43
 70
     1
102
RTVSPost2010Prop44ColorIndex
 90
        5
102
RTVSPost2010Prop44ColorRGB
 90
      255
102
RTVSPost2010PropOp44
 70
     1
102
RTVSPost2010Prop45
280
     0
102
RTVSPost2010PropOp45
 70
     1
102
RTVSPost2010Prop46
 90
       50
102
RTVSPost2010PropOp46
 70
     1
102
RTVSPost2010Prop47
 90
       50
102
RTVSPost2010PropOp47
 70
     1
102
RTVSPost2010Prop48
 90
       50
102
RTVSPost2010PropOp48
 70
     1
102
RTVSPost2010Prop49
280
     0
102
RTVSPost2010PropOp49
 70
     1
102
RTVSPost2010Prop50
 90
       50
102
RTVSPost2010PropOp50
 70
     1
102
RTVSPost2010Prop51ColorIndex
 90
      256
102
RTVSPost2010Prop51ColorRGB
 90
-16777216
102
RTVSPost2010PropOp51
 70
     0
102
RTVSPost2010Prop52
140
1.0
102
RTVSPost2010PropOp52
 70
     0
102
RTVSPost2010Prop53
 90
        2
102
RTVSPost2010PropOp53
 70
     1
102
RTVSPost2010Prop54
  1
strokes_ogs.tif
102
RTVSPost2010PropOp54
 70
     1
102
RTVSPost2010Prop55
280
     0
102
RTVSPost2010PropOp55
 70
     1
102
RTVSPost2010Prop56
140
1.0
102
RTVSPost2010PropOp56
 70
     1
102
RTVSPost2010Prop57
140
1.0
102
RTVSPost2010PropOp57
 70
     1
  0
XRECORD
  5
1F3
102
{ACAD_REACTORS
330
1F2
102
}
330
1F2
100
AcDbXrecord
280
     1
102
RTVSPropertyOp0
 70
     1
102
RTVSPropertyOp1
 70
     1
102
RTVSPropertyOp2
 70
     1
102
RTVSPropertyOp3
 70
     1
102
RTVSPropertyOp4
 70
     1
102
RTVSPropertyOp5
 70
     1
102
RTVSPropertyOp6
 70
     1
102
RTVSPropertyOp7
 70
     1
102
RTVSPropertyOp8
 70
     1
102
RTVSPropertyOp9
 70
     1
102
RTVSPropertyOp10
 70
     1
102
RTVSPropertyOp11
 70
     1
102
RTVSPropertyOp12
 70
     1
102
RTVSPropertyOp13
 70
     1
102
RTVSPropertyOp14
 70
     1
102
RTVSPropertyOp15
 70
     1
102
RTVSPropertyOp16
 70
     1
102
RTVSPropertyOp17
 70
     1
102
RTVSPropertyOp18
 70
     1
102
RTVSPropertyOp19
 70
     1
102
RTVSPropertyOp20
 70
     1
102
RTVSPropertyOp21
 70
     1
102
RTVSPropertyOp22
 70
     1
102
RTVSPropertyOp23
 70
     1
102
RTVSPropertyOp24
 70
     1
102
RTVSPropertyOp25
 70
     1
102
RTVSPropertyOp26
 70
     1
102
RTVSPropertyOp27
 70
     1
102
RTVSPropertyOp28
 70
     1
102
RTVSPropertyOp29
 70
     1
102
RTVSPropertyOp30
 70
     1
102
RTVSPropertyOp31
 70
     1
102
RTVSPropertyOp32
 70
     1
102
RTVSPropertyOp33
 70
     1
102
RTVSPropertyOp34
 70
     1
102
RTVSPropertyOp35
 70
     1
102
RTVSPropertyOp36
 70
     1
102
RTVSPropertyOp37
 70
     1
102
RTVSPropertyOp38
 70
     1
102
RTVSPropertyOp39
 70
     1
102
RTVSPropertyOp40
 70
     1
102
RTVSPropertyOp41
 70
     1
102
RTVSPropertyOp42
 70
     1
102
RTVSPropertyOp43
 70
     1
102
RTVSPropertyOp44
 70
     1
102
RTVSPropertyOp45
 70
     1
102
RTVSPropertyOp46
 70
     1
102
RTVSPropertyOp47
 70
     1
102
RTVSPropertyOp48
 70
     1
102
RTVSPropertyOp49
 70
     1
102
RTVSPropertyOp50
 70
     1
102
RTVSPropertyOp51
 70
     0
102
RTVSPropertyOp52
 70
     0
102
RTVSPropertyOp53
 70
     1
102
RTVSPropertyOp54
 70
     1
102
RTVSPropertyOp55
 70
     1
102
RTVSPropertyOp56
 70
     1
102
RTVSPropertyOp57
 70
     1
102
RTVSPost2010Prop28
280
     0
102
RTVSPost2010PropOp28
 70
     1
102
RTVSPost2010Prop29
280
     1
102
RTVSPost2010PropOp29
 70
     1
102
RTVSPost2010Prop30
280
     1
102
RTVSPost2010PropOp30
 70
     1
102
RTVSPost2010Prop31
280
     0
102
RTVSPost2010PropOp31
 70
     1
102
RTVSPost2010Prop32
280
     0
102
RTVSPost2010PropOp32
 70
     1
102
RTVSPost2010Prop33
280
     0
102
RTVSPost2010PropOp33
 70
     1
102
RTVSPost2010Prop34
280
     0
102
RTVSPost2010PropOp34
 70
     1
102
RTVSPost2010Prop35
280
     0
102
RTVSPost2010PropOp35
 70
     1
102
RTVSPost2010Prop36
280
     0
102
RTVSPost2010PropOp36
 70
     1
102
RTVSPost2010Prop37
 90
       50
102
RTVSPost2010PropOp37
 70
     1
102
RTVSPost2010Prop38
140
0.0
102
RTVSPost2010PropOp38
 70
     1
102
RTVSPost2010Prop39
140
1.0
102
RTVSPost2010PropOp39
 70
     1
102
RTVSPost2010Prop40
 90
        0
102
RTVSPost2010PropOp40
 70
     1
102
RTVSPost2010Prop41ColorIndex
 90
       18
102
RTVSPost2010Prop41ColorRGB
 90
        0
102
RTVSPost2010PropOp41
 70
     1
102
RTVSPost2010Prop42
 90
       50
102
RTVSPost2010PropOp42
 70
     1
102
RTVSPost2010Prop43
 90
        3
102
RTVSPost2010PropOp43
 70
     1
102
RTVSPost2010Prop44ColorIndex
 90
        5
102
RTVSPost2010Prop44ColorRGB
 90
      255
102
RTVSPost2010PropOp44
 70
     1
102
RTVSPost2010Prop45
280
     0
102
RTVSPost2010PropOp45
 70
     1
102
RTVSPost2010Prop46
 90
       50
102
RTVSPost2010PropOp46
 70
     1
102
RTVSPost2010Prop47
 90
       50
102
RTVSPost2010PropOp47
 70
     1
102
RTVSPost2010Prop48
 90
       50
102
RTVSPost2010PropOp48
 70
     1
102
RTVSPost2010Prop49
280
     0
102
RTVSPost2010PropOp49
 70
     1
102
RTVSPost2010Prop50
 90
       50
102
RTVSPost2010PropOp50
 70
     1
102
RTVSPost2010Prop51ColorIndex
 90
      256
102
RTVSPost2010Prop51ColorRGB
 90
-16777216
102
RTVSPost2010PropOp51
 70
     0
102
RTVSPost2010Prop52
140
1.0
102
RTVSPost2010PropOp52
 70
     0
102
RTVSPost2010Prop53
 90
        2
102
RTVSPost2010PropOp53
 70
     1
102
RTVSPost2010Prop54
  1
strokes_ogs.tif
102
RTVSPost2010PropOp54
 70
     1
102
RTVSPost2010Prop55
280
     0
102
RTVSPost2010PropOp55
 70
     1
102
RTVSPost2010Prop56
140
1.0
102
RTVSPost2010PropOp56
 70
     1
102
RTVSPost2010Prop57
140
1.0
102
RTVSPost2010PropOp57
 70
     1
  0
XRECORD
  5
1F5
102
{ACAD_REACTORS
330
1F4
102
}
330
1F4
100
AcDbXrecord
280
     1
102
RTVSPropertyOp0
 70
     1
102
RTVSPropertyOp1
 70
     1
102
RTVSPropertyOp2
 70
     1
102
RTVSPropertyOp3
 70
     1
102
RTVSPropertyOp4
 70
     1
102
RTVSPropertyOp5
 70
     1
102
RTVSPropertyOp6
 70
     1
102
RTVSPropertyOp7
 70
     1
102
RTVSPropertyOp8
 70
     1
102
RTVSPropertyOp9
 70
     1
102
RTVSPropertyOp10
 70
     1
102
RTVSPropertyOp11
 70
     1
102
RTVSPropertyOp12
 70
     1
102
RTVSPropertyOp13
 70
     1
102
RTVSPropertyOp14
 70
     1
102
RTVSPropertyOp15
 70
     1
102
RTVSPropertyOp16
 70
     1
102
RTVSPropertyOp17
 70
     1
102
RTVSPropertyOp18
 70
     1
102
RTVSPropertyOp19
 70
     1
102
RTVSPropertyOp20
 70
     1
102
RTVSPropertyOp21
 70
     1
102
RTVSPropertyOp22
 70
     1
102
RTVSPropertyOp23
 70
     1
102
RTVSPropertyOp24
 70
     1
102
RTVSPropertyOp25
 70
     1
102
RTVSPropertyOp26
 70
     1
102
RTVSPropertyOp27
 70
     1
102
RTVSPropertyOp28
 70
     1
102
RTVSPropertyOp29
 70
     1
102
RTVSPropertyOp30
 70
     1
102
RTVSPropertyOp31
 70
     1
102
RTVSPropertyOp32
 70
     1
102
RTVSPropertyOp33
 70
     1
102
RTVSPropertyOp34
 70
     1
102
RTVSPropertyOp35
 70
     1
102
RTVSPropertyOp36
 70
     1
102
RTVSPropertyOp37
 70
     1
102
RTVSPropertyOp38
 70
     1
102
RTVSPropertyOp39
 70
     1
102
RTVSPropertyOp40
 70
     1
102
RTVSPropertyOp41
 70
     1
102
RTVSPropertyOp42
 70
     1
102
RTVSPropertyOp43
 70
     1
102
RTVSPropertyOp44
 70
     1
102
RTVSPropertyOp45
 70
     1
102
RTVSPropertyOp46
 70
     1
102
RTVSPropertyOp47
 70
     1
102
RTVSPropertyOp48
 70
     1
102
RTVSPropertyOp49
 70
     1
102
RTVSPropertyOp50
 70
     1
102
RTVSPropertyOp51
 70
     0
102
RTVSPropertyOp52
 70
     0
102
RTVSPropertyOp53
 70
     1
102
RTVSPropertyOp54
 70
     1
102
RTVSPropertyOp55
 70
     1
102
RTVSPropertyOp56
 70
     1
102
RTVSPropertyOp57
 70
     1
102
RTVSPost2010Prop28
280
     0
102
RTVSPost2010PropOp28
 70
     1
102
RTVSPost2010Prop29
280
     1
102
RTVSPost2010PropOp29
 70
     1
102
RTVSPost2010Prop30
280
     1
102
RTVSPost2010PropOp30
 70
     1
102
RTVSPost2010Prop31
280
     0
102
RTVSPost2010PropOp31
 70
     1
102
RTVSPost2010Prop32
280
     0
102
RTVSPost2010PropOp32
 70
     1
102
RTVSPost2010Prop33
280
     0
102
RTVSPost2010PropOp33
 70
     1
102
RTVSPost2010Prop34
280
     0
102
RTVSPost2010PropOp34
 70
     1
102
RTVSPost2010Prop35
280
     0
102
RTVSPost2010PropOp35
 70
     1
102
RTVSPost2010Prop36
280
     0
102
RTVSPost2010PropOp36
 70
     1
102
RTVSPost2010Prop37
 90
       50
102
RTVSPost2010PropOp37
 70
     1
102
RTVSPost2010Prop38
140
0.0
102
RTVSPost2010PropOp38
 70
     1
102
RTVSPost2010Prop39
140
1.0
102
RTVSPost2010PropOp39
 70
     1
102
RTVSPost2010Prop40
 90
        0
102
RTVSPost2010PropOp40
 70
     1
102
RTVSPost2010Prop41ColorIndex
 90
       18
102
RTVSPost2010Prop41ColorRGB
 90
        0
102
RTVSPost2010PropOp41
 70
     1
102
RTVSPost2010Prop42
 90
       50
102
RTVSPost2010PropOp42
 70
     1
102
RTVSPost2010Prop43
 90
        3
102
RTVSPost2010PropOp43
 70
     1
102
RTVSPost2010Prop44ColorIndex
 90
        5
102
RTVSPost2010Prop44ColorRGB
 90
      255
102
RTVSPost2010PropOp44
 70
     1
102
RTVSPost2010Prop45
280
     0
102
RTVSPost2010PropOp45
 70
     1
102
RTVSPost2010Prop46
 90
       50
102
RTVSPost2010PropOp46
 70
     1
102
RTVSPost2010Prop47
 90
       50
102
RTVSPost2010PropOp47
 70
     1
102
RTVSPost2010Prop48
 90
       50
102
RTVSPost2010PropOp48
 70
     1
102
RTVSPost2010Prop49
280
     0
102
RTVSPost2010PropOp49
 70
     1
102
RTVSPost2010Prop50
 90
       50
102
RTVSPost2010PropOp50
 70
     1
102
RTVSPost2010Prop51ColorIndex
 90
      256
102
RTVSPost2010Prop51ColorRGB
 90
-16777216
102
RTVSPost2010PropOp51
 70
     0
102
RTVSPost2010Prop52
140
1.0
102
RTVSPost2010PropOp52
 70
     0
102
RTVSPost2010Prop53
 90
        2
102
RTVSPost2010PropOp53
 70
     1
102
RTVSPost2010Prop54
  1
strokes_ogs.tif
102
RTVSPost2010PropOp54
 70
     1
102
RTVSPost2010Prop55
280
     0
102
RTVSPost2010PropOp55
 70
     1
102
RTVSPost2010Prop56
140
1.0
102
RTVSPost2010PropOp56
 70
     1
102
RTVSPost2010Prop57
140
1.0
102
RTVSPost2010PropOp57
 70
     1
  0
XRECORD
  5
1F7
102
{ACAD_REACTORS
330
1F6
102
}
330
1F6
100
AcDbXrecord
280
     1
102
RTVSPropertyOp0
 70
     1
102
RTVSPropertyOp1
 70
     1
102
RTVSPropertyOp2
 70
     1
102
RTVSPropertyOp3
 70
     1
102
RTVSPropertyOp4
 70
     1
102
RTVSPropertyOp5
 70
     1
102
RTVSPropertyOp6
 70
     1
102
RTVSPropertyOp7
 70
     1
102
RTVSPropertyOp8
 70
     1
102
RTVSPropertyOp9
 70
     1
102
RTVSPropertyOp10
 70
     1
102
RTVSPropertyOp11
 70
     1
102
RTVSPropertyOp12
 70
     1
102
RTVSPropertyOp13
 70
     1
102
RTVSPropertyOp14
 70
     1
102
RTVSPropertyOp15
 70
     1
102
RTVSPropertyOp16
 70
     1
102
RTVSPropertyOp17
 70
     1
102
RTVSPropertyOp18
 70
     1
102
RTVSPropertyOp19
 70
     1
102
RTVSPropertyOp20
 70
     1
102
RTVSPropertyOp21
 70
     1
102
RTVSPropertyOp22
 70
     1
102
RTVSPropertyOp23
 70
     1
102
RTVSPropertyOp24
 70
     1
102
RTVSPropertyOp25
 70
     1
102
RTVSPropertyOp26
 70
     1
102
RTVSPropertyOp27
 70
     1
102
RTVSPropertyOp28
 70
     1
102
RTVSPropertyOp29
 70
     1
102
RTVSPropertyOp30
 70
     1
102
RTVSPropertyOp31
 70
     1
102
RTVSPropertyOp32
 70
     1
102
RTVSPropertyOp33
 70
     1
102
RTVSPropertyOp34
 70
     1
102
RTVSPropertyOp35
 70
     1
102
RTVSPropertyOp36
 70
     1
102
RTVSPropertyOp37
 70
     1
102
RTVSPropertyOp38
 70
     1
102
RTVSPropertyOp39
 70
     1
102
RTVSPropertyOp40
 70
     1
102
RTVSPropertyOp41
 70
     1
102
RTVSPropertyOp42
 70
     1
102
RTVSPropertyOp43
 70
     1
102
RTVSPropertyOp44
 70
     1
102
RTVSPropertyOp45
 70
     1
102
RTVSPropertyOp46
 70
     1
102
RTVSPropertyOp47
 70
     1
102
RTVSPropertyOp48
 70
     1
102
RTVSPropertyOp49
 70
     1
102
RTVSPropertyOp50
 70
     1
102
RTVSPropertyOp51
 70
     0
102
RTVSPropertyOp52
 70
     0
102
RTVSPropertyOp53
 70
     1
102
RTVSPropertyOp54
 70
     1
102
RTVSPropertyOp55
 70
     1
102
RTVSPropertyOp56
 70
     1
102
RTVSPropertyOp57
 70
     1
102
RTVSPost2010Prop28
280
     0
102
RTVSPost2010PropOp28
 70
     1
102
RTVSPost2010Prop29
280
     1
102
RTVSPost2010PropOp29
 70
     1
102
RTVSPost2010Prop30
280
     1
102
RTVSPost2010PropOp30
 70
     1
102
RTVSPost2010Prop31
280
     0
102
RTVSPost2010PropOp31
 70
     1
102
RTVSPost2010Prop32
280
     0
102
RTVSPost2010PropOp32
 70
     1
102
RTVSPost2010Prop33
280
     0
102
RTVSPost2010PropOp33
 70
     1
102
RTVSPost2010Prop34
280
     0
102
RTVSPost2010PropOp34
 70
     1
102
RTVSPost2010Prop35
280
     0
102
RTVSPost2010PropOp35
 70
     1
102
RTVSPost2010Prop36
280
     0
102
RTVSPost2010PropOp36
 70
     1
102
RTVSPost2010Prop37
 90
       50
102
RTVSPost2010PropOp37
 70
     1
102
RTVSPost2010Prop38
140
0.0
102
RTVSPost2010PropOp38
 70
     1
102
RTVSPost2010Prop39
140
1.0
102
RTVSPost2010PropOp39
 70
     1
102
RTVSPost2010Prop40
 90
        0
102
RTVSPost2010PropOp40
 70
     1
102
RTVSPost2010Prop41ColorIndex
 90
       18
102
RTVSPost2010Prop41ColorRGB
 90
        0
102
RTVSPost2010PropOp41
 70
     1
102
RTVSPost2010Prop42
 90
       50
102
RTVSPost2010PropOp42
 70
     1
102
RTVSPost2010Prop43
 90
        3
102
RTVSPost2010PropOp43
 70
     1
102
RTVSPost2010Prop44ColorIndex
 90
        5
102
RTVSPost2010Prop44ColorRGB
 90
      255
102
RTVSPost2010PropOp44
 70
     1
102
RTVSPost2010Prop45
280
     0
102
RTVSPost2010PropOp45
 70
     1
102
RTVSPost2010Prop46
 90
       50
102
RTVSPost2010PropOp46
 70
     1
102
RTVSPost2010Prop47
 90
       50
102
RTVSPost2010PropOp47
 70
     1
102
RTVSPost2010Prop48
 90
       50
102
RTVSPost2010PropOp48
 70
     1
102
RTVSPost2010Prop49
280
     0
102
RTVSPost2010PropOp49
 70
     1
102
RTVSPost2010Prop50
 90
       50
102
RTVSPost2010PropOp50
 70
     1
102
RTVSPost2010Prop51ColorIndex
 90
      256
102
RTVSPost2010Prop51ColorRGB
 90
-16777216
102
RTVSPost2010PropOp51
 70
     0
102
RTVSPost2010Prop52
140
1.0
102
RTVSPost2010PropOp52
 70
     0
102
RTVSPost2010Prop53
 90
        2
102
RTVSPost2010PropOp53
 70
     1
102
RTVSPost2010Prop54
  1
strokes_ogs.tif
102
RTVSPost2010PropOp54
 70
     1
102
RTVSPost2010Prop55
280
     0
102
RTVSPost2010PropOp55
 70
     1
102
RTVSPost2010Prop56
140
1.0
102
RTVSPost2010PropOp56
 70
     1
102
RTVSPost2010Prop57
140
1.0
102
RTVSPost2010PropOp57
 70
     1
  0
XRECORD
  5
1FD
102
{ACAD_REACTORS
330
1FC
102
}
330
1FC
100
AcDbXrecord
280
     1
102
RTVSPropertyOp0
 70
     1
102
RTVSPropertyOp1
 70
     1
102
RTVSPropertyOp2
 70
     1
102
RTVSPropertyOp3
 70
     1
102
RTVSPropertyOp4
 70
     1
102
RTVSPropertyOp5
 70
     1
102
RTVSPropertyOp6
 70
     1
102
RTVSPropertyOp7
 70
     1
102
RTVSPropertyOp8
 70
     1
102
RTVSPropertyOp9
 70
     1
102
RTVSPropertyOp10
 70
     1
102
RTVSPropertyOp11
 70
     1
102
RTVSPropertyOp12
 70
     1
102
RTVSPropertyOp13
 70
     1
102
RTVSPropertyOp14
 70
     1
102
RTVSPropertyOp15
 70
     1
102
RTVSPropertyOp16
 70
     1
102
RTVSPropertyOp17
 70
     1
102
RTVSPropertyOp18
 70
     1
102
RTVSPropertyOp19
 70
     1
102
RTVSPropertyOp20
 70
     1
102
RTVSPropertyOp21
 70
     1
102
RTVSPropertyOp22
 70
     1
102
RTVSPropertyOp23
 70
     1
102
RTVSPropertyOp24
 70
     1
102
RTVSPropertyOp25
 70
     1
102
RTVSPropertyOp26
 70
     1
102
RTVSPropertyOp27
 70
     1
102
RTVSPropertyOp28
 70
     1
102
RTVSPropertyOp29
 70
     1
102
RTVSPropertyOp30
 70
     1
102
RTVSPropertyOp31
 70
     1
102
RTVSPropertyOp32
 70
     1
102
RTVSPropertyOp33
 70
     1
102
RTVSPropertyOp34
 70
     1
102
RTVSPropertyOp35
 70
     1
102
RTVSPropertyOp36
 70
     1
102
RTVSPropertyOp37
 70
     1
102
RTVSPropertyOp38
 70
     1
102
RTVSPropertyOp39
 70
     1
102
RTVSPropertyOp40
 70
     1
102
RTVSPropertyOp41
 70
     1
102
RTVSPropertyOp42
 70
     1
102
RTVSPropertyOp43
 70
     1
102
RTVSPropertyOp44
 70
     1
102
RTVSPropertyOp45
 70
     1
102
RTVSPropertyOp46
 70
     1
102
RTVSPropertyOp47
 70
     1
102
RTVSPropertyOp48
 70
     1
102
RTVSPropertyOp49
 70
     1
102
RTVSPropertyOp50
 70
     1
102
RTVSPropertyOp51
 70
     0
102
RTVSPropertyOp52
 70
     0
102
RTVSPropertyOp53
 70
     1
102
RTVSPropertyOp54
 70
     1
102
RTVSPropertyOp55
 70
     1
102
RTVSPropertyOp56
 70
     1
102
RTVSPropertyOp57
 70
     1
102
RTVSPost2010Prop28
280
     0
102
RTVSPost2010PropOp28
 70
     1
102
RTVSPost2010Prop29
280
     1
102
RTVSPost2010PropOp29
 70
     1
102
RTVSPost2010Prop30
280
     1
102
RTVSPost2010PropOp30
 70
     1
102
RTVSPost2010Prop31
280
     0
102
RTVSPost2010PropOp31
 70
     1
102
RTVSPost2010Prop32
280
     0
102
RTVSPost2010PropOp32
 70
     1
102
RTVSPost2010Prop33
280
     0
102
RTVSPost2010PropOp33
 70
     1
102
RTVSPost2010Prop34
280
     0
102
RTVSPost2010PropOp34
 70
     1
102
RTVSPost2010Prop35
280
     0
102
RTVSPost2010PropOp35
 70
     1
102
RTVSPost2010Prop36
280
     0
102
RTVSPost2010PropOp36
 70
     1
102
RTVSPost2010Prop37
 90
       50
102
RTVSPost2010PropOp37
 70
     1
102
RTVSPost2010Prop38
140
0.0
102
RTVSPost2010PropOp38
 70
     1
102
RTVSPost2010Prop39
140
1.0
102
RTVSPost2010PropOp39
 70
     1
102
RTVSPost2010Prop40
 90
        0
102
RTVSPost2010PropOp40
 70
     1
102
RTVSPost2010Prop41ColorIndex
 90
       18
102
RTVSPost2010Prop41ColorRGB
 90
        0
102
RTVSPost2010PropOp41
 70
     1
102
RTVSPost2010Prop42
 90
       50
102
RTVSPost2010PropOp42
 70
     1
102
RTVSPost2010Prop43
 90
        3
102
RTVSPost2010PropOp43
 70
     1
102
RTVSPost2010Prop44ColorIndex
 90
        5
102
RTVSPost2010Prop44ColorRGB
 90
      255
102
RTVSPost2010PropOp44
 70
     1
102
RTVSPost2010Prop45
280
     0
102
RTVSPost2010PropOp45
 70
     1
102
RTVSPost2010Prop46
 90
       50
102
RTVSPost2010PropOp46
 70
     1
102
RTVSPost2010Prop47
 90
       50
102
RTVSPost2010PropOp47
 70
     1
102
RTVSPost2010Prop48
 90
       50
102
RTVSPost2010PropOp48
 70
     1
102
RTVSPost2010Prop49
280
     0
102
RTVSPost2010PropOp49
 70
     1
102
RTVSPost2010Prop50
 90
       50
102
RTVSPost2010PropOp50
 70
     1
102
RTVSPost2010Prop51ColorIndex
 90
      256
102
RTVSPost2010Prop51ColorRGB
 90
-16777216
102
RTVSPost2010PropOp51
 70
     0
102
RTVSPost2010Prop52
140
1.0
102
RTVSPost2010PropOp52
 70
     0
102
RTVSPost2010Prop53
 90
        2
102
RTVSPost2010PropOp53
 70
     1
102
RTVSPost2010Prop54
  1
strokes_ogs.tif
102
RTVSPost2010PropOp54
 70
     1
102
RTVSPost2010Prop55
280
     0
102
RTVSPost2010PropOp55
 70
     1
102
RTVSPost2010Prop56
140
1.0
102
RTVSPost2010PropOp56
 70
     1
102
RTVSPost2010Prop57
140
1.0
102
RTVSPost2010PropOp57
 70
     1
  0
XRECORD
  5
211
102
{ACAD_REACTORS
330
210
102
}
330
210
100
AcDbXrecord
280
     1
102
RTVSPropertyOp0
 70
     0
102
RTVSPropertyOp1
 70
     0
102
RTVSPropertyOp2
 70
     0
102
RTVSPropertyOp3
 70
     0
102
RTVSPropertyOp4
 70
     0
102
RTVSPropertyOp5
 70
     0
102
RTVSPropertyOp6
 70
     0
102
RTVSPropertyOp7
 70
     0
102
RTVSPropertyOp8
 70
     0
102
RTVSPropertyOp9
 70
     0
102
RTVSPropertyOp10
 70
     0
102
RTVSPropertyOp11
 70
     0
102
RTVSPropertyOp12
 70
     0
102
RTVSPropertyOp13
 70
     0
102
RTVSPropertyOp14
 70
     2
102
RTVSPropertyOp15
 70
     0
102
RTVSPropertyOp16
 70
     0
102
RTVSPropertyOp17
 70
     0
102
RTVSPropertyOp18
 70
     0
102
RTVSPropertyOp19
 70
     0
102
RTVSPropertyOp20
 70
     0
102
RTVSPropertyOp21
 70
     0
102
RTVSPropertyOp22
 70
     0
102
RTVSPropertyOp23
 70
     0
102
RTVSPropertyOp24
 70
     0
102
RTVSPropertyOp25
 70
     0
102
RTVSPropertyOp26
 70
     0
102
RTVSPropertyOp27
 70
     0
102
RTVSPropertyOp28
 70
     0
102
RTVSPropertyOp29
 70
     0
102
RTVSPropertyOp30
 70
     0
102
RTVSPropertyOp31
 70
     0
102
RTVSPropertyOp32
 70
     0
102
RTVSPropertyOp33
 70
     0
102
RTVSPropertyOp34
 70
     0
102
RTVSPropertyOp35
 70
     0
102
RTVSPropertyOp36
 70
     0
102
RTVSPropertyOp37
 70
     0
102
RTVSPropertyOp38
 70
     0
102
RTVSPropertyOp39
 70
     0
102
RTVSPropertyOp40
 70
     0
102
RTVSPropertyOp41
 70
     0
102
RTVSPropertyOp42
 70
     0
102
RTVSPropertyOp43
 70
     0
102
RTVSPropertyOp44
 70
     0
102
RTVSPropertyOp45
 70
     0
102
RTVSPropertyOp46
 70
     0
102
RTVSPropertyOp47
 70
     0
102
RTVSPropertyOp48
 70
     0
102
RTVSPropertyOp49
 70
     0
102
RTVSPropertyOp50
 70
     0
102
RTVSPropertyOp51
 70
     0
102
RTVSPropertyOp52
 70
     0
102
RTVSPropertyOp53
 70
     0
102
RTVSPropertyOp54
 70
     0
102
RTVSPropertyOp55
 70
     0
102
RTVSPropertyOp56
 70
     0
102
RTVSPropertyOp57
 70
     0
102
RTVSPost2010Prop28
280
     0
102
RTVSPost2010PropOp28
 70
     0
102
RTVSPost2010Prop29
280
     1
102
RTVSPost2010PropOp29
 70
     0
102
RTVSPost2010Prop30
280
     1
102
RTVSPost2010PropOp30
 70
     0
102
RTVSPost2010Prop31
280
     0
102
RTVSPost2010PropOp31
 70
     0
102
RTVSPost2010Prop32
280
     0
102
RTVSPost2010PropOp32
 70
     0
102
RTVSPost2010Prop33
280
     0
102
RTVSPost2010PropOp33
 70
     0
102
RTVSPost2010Prop34
280
     0
102
RTVSPost2010PropOp34
 70
     0
102
RTVSPost2010Prop35
280
     0
102
RTVSPost2010PropOp35
 70
     0
102
RTVSPost2010Prop36
280
     0
102
RTVSPost2010PropOp36
 70
     0
102
RTVSPost2010Prop37
 90
       50
102
RTVSPost2010PropOp37
 70
     0
102
RTVSPost2010Prop38
140
0.0
102
RTVSPost2010PropOp38
 70
     0
102
RTVSPost2010Prop39
140
1.0
102
RTVSPost2010PropOp39
 70
     0
102
RTVSPost2010Prop40
 90
        0
102
RTVSPost2010PropOp40
 70
     0
102
RTVSPost2010Prop41ColorIndex
 90
       18
102
RTVSPost2010Prop41ColorRGB
 90
        0
102
RTVSPost2010PropOp41
 70
     0
102
RTVSPost2010Prop42
 90
       50
102
RTVSPost2010PropOp42
 70
     0
102
RTVSPost2010Prop43
 90
        3
102
RTVSPost2010PropOp43
 70
     0
102
RTVSPost2010Prop44ColorIndex
 90
        5
102
RTVSPost2010Prop44ColorRGB
 90
      255
102
RTVSPost2010PropOp44
 70
     0
102
RTVSPost2010Prop45
280
     0
102
RTVSPost2010PropOp45
 70
     0
102
RTVSPost2010Prop46
 90
       50
102
RTVSPost2010PropOp46
 70
     0
102
RTVSPost2010Prop47
 90
       50
102
RTVSPost2010PropOp47
 70
     0
102
RTVSPost2010Prop48
 90
       50
102
RTVSPost2010PropOp48
 70
     0
102
RTVSPost2010Prop49
280
     0
102
RTVSPost2010PropOp49
 70
     0
102
RTVSPost2010Prop50
 90
       50
102
RTVSPost2010PropOp50
 70
     0
102
RTVSPost2010Prop51ColorIndex
 90
      256
102
RTVSPost2010Prop51ColorRGB
 90
-16777216
102
RTVSPost2010PropOp51
 70
     0
102
RTVSPost2010Prop52
140
1.0
102
RTVSPost2010PropOp52
 70
     0
102
RTVSPost2010Prop53
 90
        2
102
RTVSPost2010PropOp53
 70
     0
102
RTVSPost2010Prop54
  1
strokes_ogs.tif
102
RTVSPost2010PropOp54
 70
     0
102
RTVSPost2010Prop55
280
     0
102
RTVSPost2010PropOp55
 70
     0
102
RTVSPost2010Prop56
140
1.0
102
RTVSPost2010PropOp56
 70
     0
102
RTVSPost2010Prop57
140
1.0
102
RTVSPost2010PropOp57
 70
     0
  0
XRECORD
  5
20B
102
{ACAD_REACTORS
330
20A
102
}
330
20A
100
AcDbXrecord
280
     1
102
RTVSPropertyOp0
 70
     1
102
RTVSPropertyOp1
 70
     1
102
RTVSPropertyOp2
 70
     1
102
RTVSPropertyOp3
 70
     1
102
RTVSPropertyOp4
 70
     1
102
RTVSPropertyOp5
 70
     1
102
RTVSPropertyOp6
 70
     1
102
RTVSPropertyOp7
 70
     1
102
RTVSPropertyOp8
 70
     1
102
RTVSPropertyOp9
 70
     1
102
RTVSPropertyOp10
 70
     1
102
RTVSPropertyOp11
 70
     1
102
RTVSPropertyOp12
 70
     1
102
RTVSPropertyOp13
 70
     1
102
RTVSPropertyOp14
 70
     1
102
RTVSPropertyOp15
 70
     1
102
RTVSPropertyOp16
 70
     1
102
RTVSPropertyOp17
 70
     1
102
RTVSPropertyOp18
 70
     1
102
RTVSPropertyOp19
 70
     1
102
RTVSPropertyOp20
 70
     1
102
RTVSPropertyOp21
 70
     1
102
RTVSPropertyOp22
 70
     1
102
RTVSPropertyOp23
 70
     1
102
RTVSPropertyOp24
 70
     1
102
RTVSPropertyOp25
 70
     1
102
RTVSPropertyOp26
 70
     1
102
RTVSPropertyOp27
 70
     1
102
RTVSPropertyOp28
 70
     1
102
RTVSPropertyOp29
 70
     1
102
RTVSPropertyOp30
 70
     1
102
RTVSPropertyOp31
 70
     1
102
RTVSPropertyOp32
 70
     1
102
RTVSPropertyOp33
 70
     1
102
RTVSPropertyOp34
 70
     1
102
RTVSPropertyOp35
 70
     1
102
RTVSPropertyOp36
 70
     1
102
RTVSPropertyOp37
 70
     1
102
RTVSPropertyOp38
 70
     1
102
RTVSPropertyOp39
 70
     1
102
RTVSPropertyOp40
 70
     1
102
RTVSPropertyOp41
 70
     1
102
RTVSPropertyOp42
 70
     1
102
RTVSPropertyOp43
 70
     1
102
RTVSPropertyOp44
 70
     1
102
RTVSPropertyOp45
 70
     1
102
RTVSPropertyOp46
 70
     1
102
RTVSPropertyOp47
 70
     1
102
RTVSPropertyOp48
 70
     1
102
RTVSPropertyOp49
 70
     1
102
RTVSPropertyOp50
 70
     1
102
RTVSPropertyOp51
 70
     0
102
RTVSPropertyOp52
 70
     0
102
RTVSPropertyOp53
 70
     1
102
RTVSPropertyOp54
 70
     1
102
RTVSPropertyOp55
 70
     1
102
RTVSPropertyOp56
 70
     1
102
RTVSPropertyOp57
 70
     1
102
RTVSPost2010Prop28
280
     0
102
RTVSPost2010PropOp28
 70
     1
102
RTVSPost2010Prop29
280
     1
102
RTVSPost2010PropOp29
 70
     1
102
RTVSPost2010Prop30
280
     1
102
RTVSPost2010PropOp30
 70
     1
102
RTVSPost2010Prop31
280
     0
102
RTVSPost2010PropOp31
 70
     1
102
RTVSPost2010Prop32
280
     0
102
RTVSPost2010PropOp32
 70
     1
102
RTVSPost2010Prop33
280
     0
102
RTVSPost2010PropOp33
 70
     1
102
RTVSPost2010Prop34
280
     0
102
RTVSPost2010PropOp34
 70
     1
102
RTVSPost2010Prop35
280
     0
102
RTVSPost2010PropOp35
 70
     1
102
RTVSPost2010Prop36
280
     0
102
RTVSPost2010PropOp36
 70
     1
102
RTVSPost2010Prop37
 90
       50
102
RTVSPost2010PropOp37
 70
     1
102
RTVSPost2010Prop38
140
0.0
102
RTVSPost2010PropOp38
 70
     1
102
RTVSPost2010Prop39
140
1.0
102
RTVSPost2010PropOp39
 70
     1
102
RTVSPost2010Prop40
 90
        0
102
RTVSPost2010PropOp40
 70
     1
102
RTVSPost2010Prop41ColorIndex
 90
       18
102
RTVSPost2010Prop41ColorRGB
 90
        0
102
RTVSPost2010PropOp41
 70
     1
102
RTVSPost2010Prop42
 90
       50
102
RTVSPost2010PropOp42
 70
     1
102
RTVSPost2010Prop43
 90
        3
102
RTVSPost2010PropOp43
 70
     1
102
RTVSPost2010Prop44ColorIndex
 90
        5
102
RTVSPost2010Prop44ColorRGB
 90
      255
102
RTVSPost2010PropOp44
 70
     1
102
RTVSPost2010Prop45
280
     0
102
RTVSPost2010PropOp45
 70
     1
102
RTVSPost2010Prop46
 90
       50
102
RTVSPost2010PropOp46
 70
     1
102
RTVSPost2010Prop47
 90
       50
102
RTVSPost2010PropOp47
 70
     1
102
RTVSPost2010Prop48
 90
       50
102
RTVSPost2010PropOp48
 70
     1
102
RTVSPost2010Prop49
280
     0
102
RTVSPost2010PropOp49
 70
     1
102
RTVSPost2010Prop50
 90
       50
102
RTVSPost2010PropOp50
 70
     1
102
RTVSPost2010Prop51ColorIndex
 90
      256
102
RTVSPost2010Prop51ColorRGB
 90
-16777216
102
RTVSPost2010PropOp51
 70
     0
102
RTVSPost2010Prop52
140
1.0
102
RTVSPost2010PropOp52
 70
     0
102
RTVSPost2010Prop53
 90
        2
102
RTVSPost2010PropOp53
 70
     1
102
RTVSPost2010Prop54
  1
strokes_ogs.tif
102
RTVSPost2010PropOp54
 70
     1
102
RTVSPost2010Prop55
280
     0
102
RTVSPost2010PropOp55
 70
     1
102
RTVSPost2010Prop56
140
1.0
102
RTVSPost2010PropOp56
 70
     1
102
RTVSPost2010Prop57
140
1.0
102
RTVSPost2010PropOp57
 70
     1
  0
XRECORD
  5
213
102
{ACAD_REACTORS
330
212
102
}
330
212
100
AcDbXrecord
280
     1
102
RTVSPropertyOp0
 70
     0
102
RTVSPropertyOp1
 70
     0
102
RTVSPropertyOp2
 70
     0
102
RTVSPropertyOp3
 70
     0
102
RTVSPropertyOp4
 70
     0
102
RTVSPropertyOp5
 70
     0
102
RTVSPropertyOp6
 70
     0
102
RTVSPropertyOp7
 70
     0
102
RTVSPropertyOp8
 70
     0
102
RTVSPropertyOp9
 70
     0
102
RTVSPropertyOp10
 70
     0
102
RTVSPropertyOp11
 70
     0
102
RTVSPropertyOp12
 70
     0
102
RTVSPropertyOp13
 70
     0
102
RTVSPropertyOp14
 70
     2
102
RTVSPropertyOp15
 70
     0
102
RTVSPropertyOp16
 70
     0
102
RTVSPropertyOp17
 70
     0
102
RTVSPropertyOp18
 70
     0
102
RTVSPropertyOp19
 70
     0
102
RTVSPropertyOp20
 70
     0
102
RTVSPropertyOp21
 70
     0
102
RTVSPropertyOp22
 70
     0
102
RTVSPropertyOp23
 70
     0
102
RTVSPropertyOp24
 70
     0
102
RTVSPropertyOp25
 70
     0
102
RTVSPropertyOp26
 70
     0
102
RTVSPropertyOp27
 70
     0
102
RTVSPropertyOp28
 70
     0
102
RTVSPropertyOp29
 70
     0
102
RTVSPropertyOp30
 70
     0
102
RTVSPropertyOp31
 70
     0
102
RTVSPropertyOp32
 70
     0
102
RTVSPropertyOp33
 70
     0
102
RTVSPropertyOp34
 70
     0
102
RTVSPropertyOp35
 70
     0
102
RTVSPropertyOp36
 70
     0
102
RTVSPropertyOp37
 70
     0
102
RTVSPropertyOp38
 70
     0
102
RTVSPropertyOp39
 70
     0
102
RTVSPropertyOp40
 70
     0
102
RTVSPropertyOp41
 70
     0
102
RTVSPropertyOp42
 70
     0
102
RTVSPropertyOp43
 70
     0
102
RTVSPropertyOp44
 70
     0
102
RTVSPropertyOp45
 70
     0
102
RTVSPropertyOp46
 70
     0
102
RTVSPropertyOp47
 70
     0
102
RTVSPropertyOp48
 70
     0
102
RTVSPropertyOp49
 70
     0
102
RTVSPropertyOp50
 70
     0
102
RTVSPropertyOp51
 70
     0
102
RTVSPropertyOp52
 70
     0
102
RTVSPropertyOp53
 70
     0
102
RTVSPropertyOp54
 70
     0
102
RTVSPropertyOp55
 70
     0
102
RTVSPropertyOp56
 70
     0
102
RTVSPropertyOp57
 70
     0
102
RTVSPost2010Prop28
280
     0
102
RTVSPost2010PropOp28
 70
     0
102
RTVSPost2010Prop29
280
     1
102
RTVSPost2010PropOp29
 70
     0
102
RTVSPost2010Prop30
280
     1
102
RTVSPost2010PropOp30
 70
     0
102
RTVSPost2010Prop31
280
     0
102
RTVSPost2010PropOp31
 70
     0
102
RTVSPost2010Prop32
280
     0
102
RTVSPost2010PropOp32
 70
     0
102
RTVSPost2010Prop33
280
     0
102
RTVSPost2010PropOp33
 70
     0
102
RTVSPost2010Prop34
280
     0
102
RTVSPost2010PropOp34
 70
     0
102
RTVSPost2010Prop35
280
     0
102
RTVSPost2010PropOp35
 70
     0
102
RTVSPost2010Prop36
280
     0
102
RTVSPost2010PropOp36
 70
     0
102
RTVSPost2010Prop37
 90
       50
102
RTVSPost2010PropOp37
 70
     0
102
RTVSPost2010Prop38
140
0.0
102
RTVSPost2010PropOp38
 70
     0
102
RTVSPost2010Prop39
140
1.0
102
RTVSPost2010PropOp39
 70
     0
102
RTVSPost2010Prop40
 90
        0
102
RTVSPost2010PropOp40
 70
     0
102
RTVSPost2010Prop41ColorIndex
 90
       18
102
RTVSPost2010Prop41ColorRGB
 90
        0
102
RTVSPost2010PropOp41
 70
     0
102
RTVSPost2010Prop42
 90
       50
102
RTVSPost2010PropOp42
 70
     0
102
RTVSPost2010Prop43
 90
        3
102
RTVSPost2010PropOp43
 70
     0
102
RTVSPost2010Prop44ColorIndex
 90
        5
102
RTVSPost2010Prop44ColorRGB
 90
      255
102
RTVSPost2010PropOp44
 70
     0
102
RTVSPost2010Prop45
280
     0
102
RTVSPost2010PropOp45
 70
     0
102
RTVSPost2010Prop46
 90
       50
102
RTVSPost2010PropOp46
 70
     0
102
RTVSPost2010Prop47
 90
       50
102
RTVSPost2010PropOp47
 70
     0
102
RTVSPost2010Prop48
 90
       50
102
RTVSPost2010PropOp48
 70
     0
102
RTVSPost2010Prop49
280
     0
102
RTVSPost2010PropOp49
 70
     0
102
RTVSPost2010Prop50
 90
       50
102
RTVSPost2010PropOp50
 70
     0
102
RTVSPost2010Prop51ColorIndex
 90
      256
102
RTVSPost2010Prop51ColorRGB
 90
-16777216
102
RTVSPost2010PropOp51
 70
     0
102
RTVSPost2010Prop52
140
1.0
102
RTVSPost2010PropOp52
 70
     0
102
RTVSPost2010Prop53
 90
        2
102
RTVSPost2010PropOp53
 70
     0
102
RTVSPost2010Prop54
  1
strokes_ogs.tif
102
RTVSPost2010PropOp54
 70
     0
102
RTVSPost2010Prop55
280
     0
102
RTVSPost2010PropOp55
 70
     0
102
RTVSPost2010Prop56
140
1.0
102
RTVSPost2010PropOp56
 70
     0
102
RTVSPost2010Prop57
140
1.0
102
RTVSPost2010PropOp57
 70
     0
  0
XRECORD
  5
201
102
{ACAD_REACTORS
330
200
102
}
330
200
100
AcDbXrecord
280
     1
102
RTVSPropertyOp0
 70
     1
102
RTVSPropertyOp1
 70
     1
102
RTVSPropertyOp2
 70
     1
102
RTVSPropertyOp3
 70
     1
102
RTVSPropertyOp4
 70
     1
102
RTVSPropertyOp5
 70
     1
102
RTVSPropertyOp6
 70
     1
102
RTVSPropertyOp7
 70
     1
102
RTVSPropertyOp8
 70
     1
102
RTVSPropertyOp9
 70
     1
102
RTVSPropertyOp10
 70
     1
102
RTVSPropertyOp11
 70
     1
102
RTVSPropertyOp12
 70
     1
102
RTVSPropertyOp13
 70
     1
102
RTVSPropertyOp14
 70
     1
102
RTVSPropertyOp15
 70
     1
102
RTVSPropertyOp16
 70
     1
102
RTVSPropertyOp17
 70
     1
102
RTVSPropertyOp18
 70
     1
102
RTVSPropertyOp19
 70
     1
102
RTVSPropertyOp20
 70
     1
102
RTVSPropertyOp21
 70
     1
102
RTVSPropertyOp22
 70
     1
102
RTVSPropertyOp23
 70
     1
102
RTVSPropertyOp24
 70
     1
102
RTVSPropertyOp25
 70
     1
102
RTVSPropertyOp26
 70
     1
102
RTVSPropertyOp27
 70
     1
102
RTVSPropertyOp28
 70
     1
102
RTVSPropertyOp29
 70
     1
102
RTVSPropertyOp30
 70
     1
102
RTVSPropertyOp31
 70
     1
102
RTVSPropertyOp32
 70
     1
102
RTVSPropertyOp33
 70
     1
102
RTVSPropertyOp34
 70
     1
102
RTVSPropertyOp35
 70
     1
102
RTVSPropertyOp36
 70
     1
102
RTVSPropertyOp37
 70
     1
102
RTVSPropertyOp38
 70
     1
102
RTVSPropertyOp39
 70
     1
102
RTVSPropertyOp40
 70
     1
102
RTVSPropertyOp41
 70
     1
102
RTVSPropertyOp42
 70
     1
102
RTVSPropertyOp43
 70
     1
102
RTVSPropertyOp44
 70
     1
102
RTVSPropertyOp45
 70
     1
102
RTVSPropertyOp46
 70
     1
102
RTVSPropertyOp47
 70
     1
102
RTVSPropertyOp48
 70
     1
102
RTVSPropertyOp49
 70
     1
102
RTVSPropertyOp50
 70
     1
102
RTVSPropertyOp51
 70
     0
102
RTVSPropertyOp52
 70
     0
102
RTVSPropertyOp53
 70
     1
102
RTVSPropertyOp54
 70
     1
102
RTVSPropertyOp55
 70
     1
102
RTVSPropertyOp56
 70
     1
102
RTVSPropertyOp57
 70
     1
102
RTVSPost2010Prop28
280
     0
102
RTVSPost2010PropOp28
 70
     1
102
RTVSPost2010Prop29
280
     1
102
RTVSPost2010PropOp29
 70
     1
102
RTVSPost2010Prop30
280
     1
102
RTVSPost2010PropOp30
 70
     1
102
RTVSPost2010Prop31
280
     0
102
RTVSPost2010PropOp31
 70
     1
102
RTVSPost2010Prop32
280
     0
102
RTVSPost2010PropOp32
 70
     1
102
RTVSPost2010Prop33
280
     0
102
RTVSPost2010PropOp33
 70
     1
102
RTVSPost2010Prop34
280
     0
102
RTVSPost2010PropOp34
 70
     1
102
RTVSPost2010Prop35
280
     0
102
RTVSPost2010PropOp35
 70
     1
102
RTVSPost2010Prop36
280
     0
102
RTVSPost2010PropOp36
 70
     1
102
RTVSPost2010Prop37
 90
       50
102
RTVSPost2010PropOp37
 70
     1
102
RTVSPost2010Prop38
140
0.0
102
RTVSPost2010PropOp38
 70
     1
102
RTVSPost2010Prop39
140
1.0
102
RTVSPost2010PropOp39
 70
     1
102
RTVSPost2010Prop40
 90
        0
102
RTVSPost2010PropOp40
 70
     1
102
RTVSPost2010Prop41ColorIndex
 90
       18
102
RTVSPost2010Prop41ColorRGB
 90
        0
102
RTVSPost2010PropOp41
 70
     1
102
RTVSPost2010Prop42
 90
       50
102
RTVSPost2010PropOp42
 70
     1
102
RTVSPost2010Prop43
 90
        3
102
RTVSPost2010PropOp43
 70
     1
102
RTVSPost2010Prop44ColorIndex
 90
        5
102
RTVSPost2010Prop44ColorRGB
 90
      255
102
RTVSPost2010PropOp44
 70
     1
102
RTVSPost2010Prop45
280
     0
102
RTVSPost2010PropOp45
 70
     1
102
RTVSPost2010Prop46
 90
       50
102
RTVSPost2010PropOp46
 70
     1
102
RTVSPost2010Prop47
 90
       50
102
RTVSPost2010PropOp47
 70
     1
102
RTVSPost2010Prop48
 90
       50
102
RTVSPost2010PropOp48
 70
     1
102
RTVSPost2010Prop49
280
     0
102
RTVSPost2010PropOp49
 70
     1
102
RTVSPost2010Prop50
 90
       50
102
RTVSPost2010PropOp50
 70
     1
102
RTVSPost2010Prop51ColorIndex
 90
      256
102
RTVSPost2010Prop51ColorRGB
 90
-16777216
102
RTVSPost2010PropOp51
 70
     0
102
RTVSPost2010Prop52
140
1.0
102
RTVSPost2010PropOp52
 70
     0
102
RTVSPost2010Prop53
 90
        2
102
RTVSPost2010PropOp53
 70
     1
102
RTVSPost2010Prop54
  1
strokes_ogs.tif
102
RTVSPost2010PropOp54
 70
     1
102
RTVSPost2010Prop55
280
     0
102
RTVSPost2010PropOp55
 70
     1
102
RTVSPost2010Prop56
140
1.0
102
RTVSPost2010PropOp56
 70
     1
102
RTVSPost2010Prop57
140
1.0
102
RTVSPost2010PropOp57
 70
     1
  0
XRECORD
  5
21F
102
{ACAD_REACTORS
330
21E
102
}
330
21E
100
AcDbXrecord
280
     1
102
RTVSPropertyOp0
 70
     1
102
RTVSPropertyOp1
 70
     1
102
RTVSPropertyOp2
 70
     1
102
RTVSPropertyOp3
 70
     1
102
RTVSPropertyOp4
 70
     1
102
RTVSPropertyOp5
 70
     1
102
RTVSPropertyOp6
 70
     1
102
RTVSPropertyOp7
 70
     1
102
RTVSPropertyOp8
 70
     1
102
RTVSPropertyOp9
 70
     1
102
RTVSPropertyOp10
 70
     1
102
RTVSPropertyOp11
 70
     1
102
RTVSPropertyOp12
 70
     1
102
RTVSPropertyOp13
 70
     1
102
RTVSPropertyOp14
 70
     1
102
RTVSPropertyOp15
 70
     1
102
RTVSPropertyOp16
 70
     1
102
RTVSPropertyOp17
 70
     1
102
RTVSPropertyOp18
 70
     1
102
RTVSPropertyOp19
 70
     1
102
RTVSPropertyOp20
 70
     1
102
RTVSPropertyOp21
 70
     1
102
RTVSPropertyOp22
 70
     1
102
RTVSPropertyOp23
 70
     1
102
RTVSPropertyOp24
 70
     1
102
RTVSPropertyOp25
 70
     1
102
RTVSPropertyOp26
 70
     1
102
RTVSPropertyOp27
 70
     1
102
RTVSPropertyOp28
 70
     1
102
RTVSPropertyOp29
 70
     1
102
RTVSPropertyOp30
 70
     1
102
RTVSPropertyOp31
 70
     1
102
RTVSPropertyOp32
 70
     1
102
RTVSPropertyOp33
 70
     1
102
RTVSPropertyOp34
 70
     1
102
RTVSPropertyOp35
 70
     1
102
RTVSPropertyOp36
 70
     1
102
RTVSPropertyOp37
 70
     1
102
RTVSPropertyOp38
 70
     1
102
RTVSPropertyOp39
 70
     1
102
RTVSPropertyOp40
 70
     1
102
RTVSPropertyOp41
 70
     1
102
RTVSPropertyOp42
 70
     1
102
RTVSPropertyOp43
 70
     1
102
RTVSPropertyOp44
 70
     1
102
RTVSPropertyOp45
 70
     1
102
RTVSPropertyOp46
 70
     1
102
RTVSPropertyOp47
 70
     1
102
RTVSPropertyOp48
 70
     1
102
RTVSPropertyOp49
 70
     1
102
RTVSPropertyOp50
 70
     1
102
RTVSPropertyOp51
 70
     0
102
RTVSPropertyOp52
 70
     0
102
RTVSPropertyOp53
 70
     1
102
RTVSPropertyOp54
 70
     1
102
RTVSPropertyOp55
 70
     1
102
RTVSPropertyOp56
 70
     1
102
RTVSPropertyOp57
 70
     1
102
RTVSPost2010Prop28
280
     0
102
RTVSPost2010PropOp28
 70
     1
102
RTVSPost2010Prop29
280
     1
102
RTVSPost2010PropOp29
 70
     1
102
RTVSPost2010Prop30
280
     1
102
RTVSPost2010PropOp30
 70
     1
102
RTVSPost2010Prop31
280
     0
102
RTVSPost2010PropOp31
 70
     1
102
RTVSPost2010Prop32
280
     0
102
RTVSPost2010PropOp32
 70
     1
102
RTVSPost2010Prop33
280
     0
102
RTVSPost2010PropOp33
 70
     1
102
RTVSPost2010Prop34
280
     0
102
RTVSPost2010PropOp34
 70
     1
102
RTVSPost2010Prop35
280
     0
102
RTVSPost2010PropOp35
 70
     1
102
RTVSPost2010Prop36
280
     0
102
RTVSPost2010PropOp36
 70
     1
102
RTVSPost2010Prop37
 90
       50
102
RTVSPost2010PropOp37
 70
     1
102
RTVSPost2010Prop38
140
0.0
102
RTVSPost2010PropOp38
 70
     1
102
RTVSPost2010Prop39
140
1.0
102
RTVSPost2010PropOp39
 70
     1
102
RTVSPost2010Prop40
 90
        0
102
RTVSPost2010PropOp40
 70
     1
102
RTVSPost2010Prop41ColorIndex
 90
       18
102
RTVSPost2010Prop41ColorRGB
 90
        0
102
RTVSPost2010PropOp41
 70
     1
102
RTVSPost2010Prop42
 90
       50
102
RTVSPost2010PropOp42
 70
     1
102
RTVSPost2010Prop43
 90
        3
102
RTVSPost2010PropOp43
 70
     1
102
RTVSPost2010Prop44ColorIndex
 90
        5
102
RTVSPost2010Prop44ColorRGB
 90
      255
102
RTVSPost2010PropOp44
 70
     1
102
RTVSPost2010Prop45
280
     0
102
RTVSPost2010PropOp45
 70
     1
102
RTVSPost2010Prop46
 90
       50
102
RTVSPost2010PropOp46
 70
     1
102
RTVSPost2010Prop47
 90
       50
102
RTVSPost2010PropOp47
 70
     1
102
RTVSPost2010Prop48
 90
       50
102
RTVSPost2010PropOp48
 70
     1
102
RTVSPost2010Prop49
280
     0
102
RTVSPost2010PropOp49
 70
     1
102
RTVSPost2010Prop50
 90
       50
102
RTVSPost2010PropOp50
 70
     1
102
RTVSPost2010Prop51ColorIndex
 90
      256
102
RTVSPost2010Prop51ColorRGB
 90
-16777216
102
RTVSPost2010PropOp51
 70
     0
102
RTVSPost2010Prop52
140
1.0
102
RTVSPost2010PropOp52
 70
     0
102
RTVSPost2010Prop53
 90
        2
102
RTVSPost2010PropOp53
 70
     1
102
RTVSPost2010Prop54
  1
strokes_ogs.tif
102
RTVSPost2010PropOp54
 70
     1
102
RTVSPost2010Prop55
280
     0
102
RTVSPost2010PropOp55
 70
     1
102
RTVSPost2010Prop56
140
1.0
102
RTVSPost2010PropOp56
 70
     1
102
RTVSPost2010Prop57
140
1.0
102
RTVSPost2010PropOp57
 70
     1
  0
XRECORD
  5
21D
102
{ACAD_REACTORS
330
21C
102
}
330
21C
100
AcDbXrecord
280
     1
102
RTVSPropertyOp0
 70
     1
102
RTVSPropertyOp1
 70
     1
102
RTVSPropertyOp2
 70
     1
102
RTVSPropertyOp3
 70
     1
102
RTVSPropertyOp4
 70
     1
102
RTVSPropertyOp5
 70
     1
102
RTVSPropertyOp6
 70
     1
102
RTVSPropertyOp7
 70
     1
102
RTVSPropertyOp8
 70
     1
102
RTVSPropertyOp9
 70
     1
102
RTVSPropertyOp10
 70
     1
102
RTVSPropertyOp11
 70
     1
102
RTVSPropertyOp12
 70
     1
102
RTVSPropertyOp13
 70
     1
102
RTVSPropertyOp14
 70
     1
102
RTVSPropertyOp15
 70
     1
102
RTVSPropertyOp16
 70
     1
102
RTVSPropertyOp17
 70
     1
102
RTVSPropertyOp18
 70
     1
102
RTVSPropertyOp19
 70
     1
102
RTVSPropertyOp20
 70
     1
102
RTVSPropertyOp21
 70
     1
102
RTVSPropertyOp22
 70
     1
102
RTVSPropertyOp23
 70
     1
102
RTVSPropertyOp24
 70
     1
102
RTVSPropertyOp25
 70
     1
102
RTVSPropertyOp26
 70
     1
102
RTVSPropertyOp27
 70
     1
102
RTVSPropertyOp28
 70
     1
102
RTVSPropertyOp29
 70
     1
102
RTVSPropertyOp30
 70
     1
102
RTVSPropertyOp31
 70
     1
102
RTVSPropertyOp32
 70
     1
102
RTVSPropertyOp33
 70
     1
102
RTVSPropertyOp34
 70
     1
102
RTVSPropertyOp35
 70
     1
102
RTVSPropertyOp36
 70
     1
102
RTVSPropertyOp37
 70
     1
102
RTVSPropertyOp38
 70
     1
102
RTVSPropertyOp39
 70
     1
102
RTVSPropertyOp40
 70
     1
102
RTVSPropertyOp41
 70
     1
102
RTVSPropertyOp42
 70
     1
102
RTVSPropertyOp43
 70
     1
102
RTVSPropertyOp44
 70
     1
102
RTVSPropertyOp45
 70
     1
102
RTVSPropertyOp46
 70
     1
102
RTVSPropertyOp47
 70
     1
102
RTVSPropertyOp48
 70
     1
102
RTVSPropertyOp49
 70
     1
102
RTVSPropertyOp50
 70
     1
102
RTVSPropertyOp51
 70
     0
102
RTVSPropertyOp52
 70
     0
102
RTVSPropertyOp53
 70
     1
102
RTVSPropertyOp54
 70
     1
102
RTVSPropertyOp55
 70
     1
102
RTVSPropertyOp56
 70
     1
102
RTVSPropertyOp57
 70
     1
102
RTVSPost2010Prop28
280
     0
102
RTVSPost2010PropOp28
 70
     1
102
RTVSPost2010Prop29
280
     1
102
RTVSPost2010PropOp29
 70
     1
102
RTVSPost2010Prop30
280
     1
102
RTVSPost2010PropOp30
 70
     1
102
RTVSPost2010Prop31
280
     0
102
RTVSPost2010PropOp31
 70
     1
102
RTVSPost2010Prop32
280
     0
102
RTVSPost2010PropOp32
 70
     1
102
RTVSPost2010Prop33
280
     0
102
RTVSPost2010PropOp33
 70
     1
102
RTVSPost2010Prop34
280
     0
102
RTVSPost2010PropOp34
 70
     1
102
RTVSPost2010Prop35
280
     0
102
RTVSPost2010PropOp35
 70
     1
102
RTVSPost2010Prop36
280
     0
102
RTVSPost2010PropOp36
 70
     1
102
RTVSPost2010Prop37
 90
       50
102
RTVSPost2010PropOp37
 70
     1
102
RTVSPost2010Prop38
140
0.0
102
RTVSPost2010PropOp38
 70
     1
102
RTVSPost2010Prop39
140
1.0
102
RTVSPost2010PropOp39
 70
     1
102
RTVSPost2010Prop40
 90
        0
102
RTVSPost2010PropOp40
 70
     1
102
RTVSPost2010Prop41ColorIndex
 90
       18
102
RTVSPost2010Prop41ColorRGB
 90
        0
102
RTVSPost2010PropOp41
 70
     1
102
RTVSPost2010Prop42
 90
       50
102
RTVSPost2010PropOp42
 70
     1
102
RTVSPost2010Prop43
 90
        3
102
RTVSPost2010PropOp43
 70
     1
102
RTVSPost2010Prop44ColorIndex
 90
        5
102
RTVSPost2010Prop44ColorRGB
 90
      255
102
RTVSPost2010PropOp44
 70
     1
102
RTVSPost2010Prop45
280
     0
102
RTVSPost2010PropOp45
 70
     1
102
RTVSPost2010Prop46
 90
       50
102
RTVSPost2010PropOp46
 70
     1
102
RTVSPost2010Prop47
 90
       50
102
RTVSPost2010PropOp47
 70
     1
102
RTVSPost2010Prop48
 90
       50
102
RTVSPost2010PropOp48
 70
     1
102
RTVSPost2010Prop49
280
     0
102
RTVSPost2010PropOp49
 70
     1
102
RTVSPost2010Prop50
 90
       50
102
RTVSPost2010PropOp50
 70
     1
102
RTVSPost2010Prop51ColorIndex
 90
      256
102
RTVSPost2010Prop51ColorRGB
 90
-16777216
102
RTVSPost2010PropOp51
 70
     0
102
RTVSPost2010Prop52
140
1.0
102
RTVSPost2010PropOp52
 70
     0
102
RTVSPost2010Prop53
 90
        2
102
RTVSPost2010PropOp53
 70
     1
102
RTVSPost2010Prop54
  1
strokes_ogs.tif
102
RTVSPost2010PropOp54
 70
     1
102
RTVSPost2010Prop55
280
     0
102
RTVSPost2010PropOp55
 70
     1
102
RTVSPost2010Prop56
140
1.0
102
RTVSPost2010PropOp56
 70
     1
102
RTVSPost2010Prop57
140
1.0
102
RTVSPost2010PropOp57
 70
     1
  0
XRECORD
  5
217
102
{ACAD_REACTORS
330
216
102
}
330
216
100
AcDbXrecord
280
     1
102
RTVSPropertyOp0
 70
     1
102
RTVSPropertyOp1
 70
     1
102
RTVSPropertyOp2
 70
     1
102
RTVSPropertyOp3
 70
     1
102
RTVSPropertyOp4
 70
     1
102
RTVSPropertyOp5
 70
     1
102
RTVSPropertyOp6
 70
     1
102
RTVSPropertyOp7
 70
     1
102
RTVSPropertyOp8
 70
     1
102
RTVSPropertyOp9
 70
     1
102
RTVSPropertyOp10
 70
     1
102
RTVSPropertyOp11
 70
     1
102
RTVSPropertyOp12
 70
     1
102
RTVSPropertyOp13
 70
     1
102
RTVSPropertyOp14
 70
     1
102
RTVSPropertyOp15
 70
     1
102
RTVSPropertyOp16
 70
     1
102
RTVSPropertyOp17
 70
     1
102
RTVSPropertyOp18
 70
     1
102
RTVSPropertyOp19
 70
     1
102
RTVSPropertyOp20
 70
     1
102
RTVSPropertyOp21
 70
     1
102
RTVSPropertyOp22
 70
     1
102
RTVSPropertyOp23
 70
     1
102
RTVSPropertyOp24
 70
     1
102
RTVSPropertyOp25
 70
     1
102
RTVSPropertyOp26
 70
     1
102
RTVSPropertyOp27
 70
     1
102
RTVSPropertyOp28
 70
     1
102
RTVSPropertyOp29
 70
     1
102
RTVSPropertyOp30
 70
     1
102
RTVSPropertyOp31
 70
     1
102
RTVSPropertyOp32
 70
     1
102
RTVSPropertyOp33
 70
     1
102
RTVSPropertyOp34
 70
     1
102
RTVSPropertyOp35
 70
     1
102
RTVSPropertyOp36
 70
     1
102
RTVSPropertyOp37
 70
     1
102
RTVSPropertyOp38
 70
     1
102
RTVSPropertyOp39
 70
     1
102
RTVSPropertyOp40
 70
     1
102
RTVSPropertyOp41
 70
     1
102
RTVSPropertyOp42
 70
     1
102
RTVSPropertyOp43
 70
     1
102
RTVSPropertyOp44
 70
     1
102
RTVSPropertyOp45
 70
     1
102
RTVSPropertyOp46
 70
     1
102
RTVSPropertyOp47
 70
     1
102
RTVSPropertyOp48
 70
     1
102
RTVSPropertyOp49
 70
     1
102
RTVSPropertyOp50
 70
     1
102
RTVSPropertyOp51
 70
     0
102
RTVSPropertyOp52
 70
     0
102
RTVSPropertyOp53
 70
     1
102
RTVSPropertyOp54
 70
     1
102
RTVSPropertyOp55
 70
     1
102
RTVSPropertyOp56
 70
     1
102
RTVSPropertyOp57
 70
     1
102
RTVSPost2010Prop28
280
     0
102
RTVSPost2010PropOp28
 70
     1
102
RTVSPost2010Prop29
280
     1
102
RTVSPost2010PropOp29
 70
     1
102
RTVSPost2010Prop30
280
     1
102
RTVSPost2010PropOp30
 70
     1
102
RTVSPost2010Prop31
280
     0
102
RTVSPost2010PropOp31
 70
     1
102
RTVSPost2010Prop32
280
     0
102
RTVSPost2010PropOp32
 70
     1
102
RTVSPost2010Prop33
280
     0
102
RTVSPost2010PropOp33
 70
     1
102
RTVSPost2010Prop34
280
     0
102
RTVSPost2010PropOp34
 70
     1
102
RTVSPost2010Prop35
280
     0
102
RTVSPost2010PropOp35
 70
     1
102
RTVSPost2010Prop36
280
     0
102
RTVSPost2010PropOp36
 70
     1
102
RTVSPost2010Prop37
 90
       50
102
RTVSPost2010PropOp37
 70
     1
102
RTVSPost2010Prop38
140
0.0
102
RTVSPost2010PropOp38
 70
     1
102
RTVSPost2010Prop39
140
1.0
102
RTVSPost2010PropOp39
 70
     1
102
RTVSPost2010Prop40
 90
        0
102
RTVSPost2010PropOp40
 70
     1
102
RTVSPost2010Prop41ColorIndex
 90
       18
102
RTVSPost2010Prop41ColorRGB
 90
        0
102
RTVSPost2010PropOp41
 70
     1
102
RTVSPost2010Prop42
 90
       50
102
RTVSPost2010PropOp42
 70
     1
102
RTVSPost2010Prop43
 90
        3
102
RTVSPost2010PropOp43
 70
     1
102
RTVSPost2010Prop44ColorIndex
 90
        5
102
RTVSPost2010Prop44ColorRGB
 90
      255
102
RTVSPost2010PropOp44
 70
     1
102
RTVSPost2010Prop45
280
     0
102
RTVSPost2010PropOp45
 70
     1
102
RTVSPost2010Prop46
 90
       50
102
RTVSPost2010PropOp46
 70
     1
102
RTVSPost2010Prop47
 90
       50
102
RTVSPost2010PropOp47
 70
     1
102
RTVSPost2010Prop48
 90
       50
102
RTVSPost2010PropOp48
 70
     1
102
RTVSPost2010Prop49
280
     0
102
RTVSPost2010PropOp49
 70
     1
102
RTVSPost2010Prop50
 90
       50
102
RTVSPost2010PropOp50
 70
     1
102
RTVSPost2010Prop51ColorIndex
 90
      256
102
RTVSPost2010Prop51ColorRGB
 90
-16777216
102
RTVSPost2010PropOp51
 70
     0
102
RTVSPost2010Prop52
140
1.0
102
RTVSPost2010PropOp52
 70
     0
102
RTVSPost2010Prop53
 90
        2
102
RTVSPost2010PropOp53
 70
     1
102
RTVSPost2010Prop54
  1
strokes_ogs.tif
102
RTVSPost2010PropOp54
 70
     1
102
RTVSPost2010Prop55
280
     0
102
RTVSPost2010PropOp55
 70
     1
102
RTVSPost2010Prop56
140
1.0
102
RTVSPost2010PropOp56
 70
     1
102
RTVSPost2010Prop57
140
1.0
102
RTVSPost2010PropOp57
 70
     1
  0
XRECORD
  5
219
102
{ACAD_REACTORS
330
218
102
}
330
218
100
AcDbXrecord
280
     1
102
RTVSPropertyOp0
 70
     1
102
RTVSPropertyOp1
 70
     1
102
RTVSPropertyOp2
 70
     1
102
RTVSPropertyOp3
 70
     1
102
RTVSPropertyOp4
 70
     1
102
RTVSPropertyOp5
 70
     1
102
RTVSPropertyOp6
 70
     1
102
RTVSPropertyOp7
 70
     1
102
RTVSPropertyOp8
 70
     1
102
RTVSPropertyOp9
 70
     1
102
RTVSPropertyOp10
 70
     1
102
RTVSPropertyOp11
 70
     1
102
RTVSPropertyOp12
 70
     1
102
RTVSPropertyOp13
 70
     1
102
RTVSPropertyOp14
 70
     1
102
RTVSPropertyOp15
 70
     1
102
RTVSPropertyOp16
 70
     1
102
RTVSPropertyOp17
 70
     1
102
RTVSPropertyOp18
 70
     1
102
RTVSPropertyOp19
 70
     1
102
RTVSPropertyOp20
 70
     1
102
RTVSPropertyOp21
 70
     1
102
RTVSPropertyOp22
 70
     1
102
RTVSPropertyOp23
 70
     1
102
RTVSPropertyOp24
 70
     1
102
RTVSPropertyOp25
 70
     1
102
RTVSPropertyOp26
 70
     1
102
RTVSPropertyOp27
 70
     1
102
RTVSPropertyOp28
 70
     1
102
RTVSPropertyOp29
 70
     1
102
RTVSPropertyOp30
 70
     1
102
RTVSPropertyOp31
 70
     1
102
RTVSPropertyOp32
 70
     1
102
RTVSPropertyOp33
 70
     1
102
RTVSPropertyOp34
 70
     1
102
RTVSPropertyOp35
 70
     1
102
RTVSPropertyOp36
 70
     1
102
RTVSPropertyOp37
 70
     1
102
RTVSPropertyOp38
 70
     1
102
RTVSPropertyOp39
 70
     1
102
RTVSPropertyOp40
 70
     1
102
RTVSPropertyOp41
 70
     1
102
RTVSPropertyOp42
 70
     1
102
RTVSPropertyOp43
 70
     1
102
RTVSPropertyOp44
 70
     1
102
RTVSPropertyOp45
 70
     1
102
RTVSPropertyOp46
 70
     1
102
RTVSPropertyOp47
 70
     1
102
RTVSPropertyOp48
 70
     1
102
RTVSPropertyOp49
 70
     1
102
RTVSPropertyOp50
 70
     1
102
RTVSPropertyOp51
 70
     0
102
RTVSPropertyOp52
 70
     0
102
RTVSPropertyOp53
 70
     1
102
RTVSPropertyOp54
 70
     1
102
RTVSPropertyOp55
 70
     1
102
RTVSPropertyOp56
 70
     1
102
RTVSPropertyOp57
 70
     1
102
RTVSPost2010Prop28
280
     0
102
RTVSPost2010PropOp28
 70
     1
102
RTVSPost2010Prop29
280
     1
102
RTVSPost2010PropOp29
 70
     1
102
RTVSPost2010Prop30
280
     1
102
RTVSPost2010PropOp30
 70
     1
102
RTVSPost2010Prop31
280
     0
102
RTVSPost2010PropOp31
 70
     1
102
RTVSPost2010Prop32
280
     0
102
RTVSPost2010PropOp32
 70
     1
102
RTVSPost2010Prop33
280
     0
102
RTVSPost2010PropOp33
 70
     1
102
RTVSPost2010Prop34
280
     0
102
RTVSPost2010PropOp34
 70
     1
102
RTVSPost2010Prop35
280
     0
102
RTVSPost2010PropOp35
 70
     1
102
RTVSPost2010Prop36
280
     0
102
RTVSPost2010PropOp36
 70
     1
102
RTVSPost2010Prop37
 90
       50
102
RTVSPost2010PropOp37
 70
     1
102
RTVSPost2010Prop38
140
0.0
102
RTVSPost2010PropOp38
 70
     1
102
RTVSPost2010Prop39
140
1.0
102
RTVSPost2010PropOp39
 70
     1
102
RTVSPost2010Prop40
 90
        0
102
RTVSPost2010PropOp40
 70
     1
102
RTVSPost2010Prop41ColorIndex
 90
       18
102
RTVSPost2010Prop41ColorRGB
 90
        0
102
RTVSPost2010PropOp41
 70
     1
102
RTVSPost2010Prop42
 90
       50
102
RTVSPost2010PropOp42
 70
     1
102
RTVSPost2010Prop43
 90
        3
102
RTVSPost2010PropOp43
 70
     1
102
RTVSPost2010Prop44ColorIndex
 90
        5
102
RTVSPost2010Prop44ColorRGB
 90
      255
102
RTVSPost2010PropOp44
 70
     1
102
RTVSPost2010Prop45
280
     0
102
RTVSPost2010PropOp45
 70
     1
102
RTVSPost2010Prop46
 90
       50
102
RTVSPost2010PropOp46
 70
     1
102
RTVSPost2010Prop47
 90
       50
102
RTVSPost2010PropOp47
 70
     1
102
RTVSPost2010Prop48
 90
       50
102
RTVSPost2010PropOp48
 70
     1
102
RTVSPost2010Prop49
280
     0
102
RTVSPost2010PropOp49
 70
     1
102
RTVSPost2010Prop50
 90
       50
102
RTVSPost2010PropOp50
 70
     1
102
RTVSPost2010Prop51ColorIndex
 90
      256
102
RTVSPost2010Prop51ColorRGB
 90
-16777216
102
RTVSPost2010PropOp51
 70
     0
102
RTVSPost2010Prop52
140
1.0
102
RTVSPost2010PropOp52
 70
     0
102
RTVSPost2010Prop53
 90
        2
102
RTVSPost2010PropOp53
 70
     1
102
RTVSPost2010Prop54
  1
strokes_ogs.tif
102
RTVSPost2010PropOp54
 70
     1
102
RTVSPost2010Prop55
280
     0
102
RTVSPost2010PropOp55
 70
     1
102
RTVSPost2010Prop56
140
1.0
102
RTVSPost2010PropOp56
 70
     1
102
RTVSPost2010Prop57
140
1.0
102
RTVSPost2010PropOp57
 70
     1
  0
XRECORD
  5
209
102
{ACAD_REACTORS
330
208
102
}
330
208
100
AcDbXrecord
280
     1
102
RTVSPropertyOp0
 70
     1
102
RTVSPropertyOp1
 70
     1
102
RTVSPropertyOp2
 70
     1
102
RTVSPropertyOp3
 70
     1
102
RTVSPropertyOp4
 70
     1
102
RTVSPropertyOp5
 70
     1
102
RTVSPropertyOp6
 70
     1
102
RTVSPropertyOp7
 70
     1
102
RTVSPropertyOp8
 70
     1
102
RTVSPropertyOp9
 70
     1
102
RTVSPropertyOp10
 70
     1
102
RTVSPropertyOp11
 70
     1
102
RTVSPropertyOp12
 70
     1
102
RTVSPropertyOp13
 70
     1
102
RTVSPropertyOp14
 70
     1
102
RTVSPropertyOp15
 70
     1
102
RTVSPropertyOp16
 70
     1
102
RTVSPropertyOp17
 70
     1
102
RTVSPropertyOp18
 70
     1
102
RTVSPropertyOp19
 70
     1
102
RTVSPropertyOp20
 70
     1
102
RTVSPropertyOp21
 70
     1
102
RTVSPropertyOp22
 70
     1
102
RTVSPropertyOp23
 70
     1
102
RTVSPropertyOp24
 70
     1
102
RTVSPropertyOp25
 70
     1
102
RTVSPropertyOp26
 70
     1
102
RTVSPropertyOp27
 70
     1
102
RTVSPropertyOp28
 70
     1
102
RTVSPropertyOp29
 70
     1
102
RTVSPropertyOp30
 70
     1
102
RTVSPropertyOp31
 70
     1
102
RTVSPropertyOp32
 70
     1
102
RTVSPropertyOp33
 70
     1
102
RTVSPropertyOp34
 70
     1
102
RTVSPropertyOp35
 70
     1
102
RTVSPropertyOp36
 70
     1
102
RTVSPropertyOp37
 70
     1
102
RTVSPropertyOp38
 70
     1
102
RTVSPropertyOp39
 70
     1
102
RTVSPropertyOp40
 70
     1
102
RTVSPropertyOp41
 70
     1
102
RTVSPropertyOp42
 70
     1
102
RTVSPropertyOp43
 70
     1
102
RTVSPropertyOp44
 70
     1
102
RTVSPropertyOp45
 70
     1
102
RTVSPropertyOp46
 70
     1
102
RTVSPropertyOp47
 70
     1
102
RTVSPropertyOp48
 70
     1
102
RTVSPropertyOp49
 70
     1
102
RTVSPropertyOp50
 70
     1
102
RTVSPropertyOp51
 70
     0
102
RTVSPropertyOp52
 70
     0
102
RTVSPropertyOp53
 70
     1
102
RTVSPropertyOp54
 70
     1
102
RTVSPropertyOp55
 70
     1
102
RTVSPropertyOp56
 70
     1
102
RTVSPropertyOp57
 70
     1
102
RTVSPost2010Prop28
280
     0
102
RTVSPost2010PropOp28
 70
     1
102
RTVSPost2010Prop29
280
     1
102
RTVSPost2010PropOp29
 70
     1
102
RTVSPost2010Prop30
280
     1
102
RTVSPost2010PropOp30
 70
     1
102
RTVSPost2010Prop31
280
     0
102
RTVSPost2010PropOp31
 70
     1
102
RTVSPost2010Prop32
280
     0
102
RTVSPost2010PropOp32
 70
     1
102
RTVSPost2010Prop33
280
     0
102
RTVSPost2010PropOp33
 70
     1
102
RTVSPost2010Prop34
280
     0
102
RTVSPost2010PropOp34
 70
     1
102
RTVSPost2010Prop35
280
     0
102
RTVSPost2010PropOp35
 70
     1
102
RTVSPost2010Prop36
280
     0
102
RTVSPost2010PropOp36
 70
     1
102
RTVSPost2010Prop37
 90
       50
102
RTVSPost2010PropOp37
 70
     1
102
RTVSPost2010Prop38
140
0.0
102
RTVSPost2010PropOp38
 70
     1
102
RTVSPost2010Prop39
140
1.0
102
RTVSPost2010PropOp39
 70
     1
102
RTVSPost2010Prop40
 90
        0
102
RTVSPost2010PropOp40
 70
     1
102
RTVSPost2010Prop41ColorIndex
 90
       18
102
RTVSPost2010Prop41ColorRGB
 90
        0
102
RTVSPost2010PropOp41
 70
     1
102
RTVSPost2010Prop42
 90
       50
102
RTVSPost2010PropOp42
 70
     1
102
RTVSPost2010Prop43
 90
        3
102
RTVSPost2010PropOp43
 70
     1
102
RTVSPost2010Prop44ColorIndex
 90
        5
102
RTVSPost2010Prop44ColorRGB
 90
      255
102
RTVSPost2010PropOp44
 70
     1
102
RTVSPost2010Prop45
280
     0
102
RTVSPost2010PropOp45
 70
     1
102
RTVSPost2010Prop46
 90
       50
102
RTVSPost2010PropOp46
 70
     1
102
RTVSPost2010Prop47
 90
       50
102
RTVSPost2010PropOp47
 70
     1
102
RTVSPost2010Prop48
 90
       50
102
RTVSPost2010PropOp48
 70
     1
102
RTVSPost2010Prop49
280
     0
102
RTVSPost2010PropOp49
 70
     1
102
RTVSPost2010Prop50
 90
       50
102
RTVSPost2010PropOp50
 70
     1
102
RTVSPost2010Prop51ColorIndex
 90
      256
102
RTVSPost2010Prop51ColorRGB
 90
-16777216
102
RTVSPost2010PropOp51
 70
     0
102
RTVSPost2010Prop52
140
1.0
102
RTVSPost2010PropOp52
 70
     0
102
RTVSPost2010Prop53
 90
        2
102
RTVSPost2010PropOp53
 70
     1
102
RTVSPost2010Prop54
  1
strokes_ogs.tif
102
RTVSPost2010PropOp54
 70
     1
102
RTVSPost2010Prop55
280
     0
102
RTVSPost2010PropOp55
 70
     1
102
RTVSPost2010Prop56
140
1.0
102
RTVSPost2010PropOp56
 70
     1
102
RTVSPost2010Prop57
140
1.0
102
RTVSPost2010PropOp57
 70
     1
  0
XRECORD
  5
1FB
102
{ACAD_REACTORS
330
1FA
102
}
330
1FA
100
AcDbXrecord
280
     1
102
RTVSPropertyOp0
 70
     1
102
RTVSPropertyOp1
 70
     1
102
RTVSPropertyOp2
 70
     1
102
RTVSPropertyOp3
 70
     1
102
RTVSPropertyOp4
 70
     1
102
RTVSPropertyOp5
 70
     1
102
RTVSPropertyOp6
 70
     1
102
RTVSPropertyOp7
 70
     1
102
RTVSPropertyOp8
 70
     1
102
RTVSPropertyOp9
 70
     1
102
RTVSPropertyOp10
 70
     1
102
RTVSPropertyOp11
 70
     1
102
RTVSPropertyOp12
 70
     1
102
RTVSPropertyOp13
 70
     1
102
RTVSPropertyOp14
 70
     1
102
RTVSPropertyOp15
 70
     1
102
RTVSPropertyOp16
 70
     1
102
RTVSPropertyOp17
 70
     1
102
RTVSPropertyOp18
 70
     1
102
RTVSPropertyOp19
 70
     1
102
RTVSPropertyOp20
 70
     1
102
RTVSPropertyOp21
 70
     1
102
RTVSPropertyOp22
 70
     1
102
RTVSPropertyOp23
 70
     1
102
RTVSPropertyOp24
 70
     1
102
RTVSPropertyOp25
 70
     1
102
RTVSPropertyOp26
 70
     1
102
RTVSPropertyOp27
 70
     1
102
RTVSPropertyOp28
 70
     1
102
RTVSPropertyOp29
 70
     1
102
RTVSPropertyOp30
 70
     1
102
RTVSPropertyOp31
 70
     1
102
RTVSPropertyOp32
 70
     1
102
RTVSPropertyOp33
 70
     1
102
RTVSPropertyOp34
 70
     1
102
RTVSPropertyOp35
 70
     1
102
RTVSPropertyOp36
 70
     1
102
RTVSPropertyOp37
 70
     1
102
RTVSPropertyOp38
 70
     1
102
RTVSPropertyOp39
 70
     1
102
RTVSPropertyOp40
 70
     1
102
RTVSPropertyOp41
 70
     1
102
RTVSPropertyOp42
 70
     1
102
RTVSPropertyOp43
 70
     1
102
RTVSPropertyOp44
 70
     1
102
RTVSPropertyOp45
 70
     1
102
RTVSPropertyOp46
 70
     1
102
RTVSPropertyOp47
 70
     1
102
RTVSPropertyOp48
 70
     1
102
RTVSPropertyOp49
 70
     1
102
RTVSPropertyOp50
 70
     1
102
RTVSPropertyOp51
 70
     0
102
RTVSPropertyOp52
 70
     0
102
RTVSPropertyOp53
 70
     1
102
RTVSPropertyOp54
 70
     1
102
RTVSPropertyOp55
 70
     1
102
RTVSPropertyOp56
 70
     1
102
RTVSPropertyOp57
 70
     1
102
RTVSPost2010Prop28
280
     0
102
RTVSPost2010PropOp28
 70
     1
102
RTVSPost2010Prop29
280
     1
102
RTVSPost2010PropOp29
 70
     1
102
RTVSPost2010Prop30
280
     1
102
RTVSPost2010PropOp30
 70
     1
102
RTVSPost2010Prop31
280
     0
102
RTVSPost2010PropOp31
 70
     1
102
RTVSPost2010Prop32
280
     0
102
RTVSPost2010PropOp32
 70
     1
102
RTVSPost2010Prop33
280
     0
102
RTVSPost2010PropOp33
 70
     1
102
RTVSPost2010Prop34
280
     0
102
RTVSPost2010PropOp34
 70
     1
102
RTVSPost2010Prop35
280
     0
102
RTVSPost2010PropOp35
 70
     1
102
RTVSPost2010Prop36
280
     0
102
RTVSPost2010PropOp36
 70
     1
102
RTVSPost2010Prop37
 90
       50
102
RTVSPost2010PropOp37
 70
     1
102
RTVSPost2010Prop38
140
0.0
102
RTVSPost2010PropOp38
 70
     1
102
RTVSPost2010Prop39
140
1.0
102
RTVSPost2010PropOp39
 70
     1
102
RTVSPost2010Prop40
 90
        0
102
RTVSPost2010PropOp40
 70
     1
102
RTVSPost2010Prop41ColorIndex
 90
       18
102
RTVSPost2010Prop41ColorRGB
 90
        0
102
RTVSPost2010PropOp41
 70
     1
102
RTVSPost2010Prop42
 90
       50
102
RTVSPost2010PropOp42
 70
     1
102
RTVSPost2010Prop43
 90
        3
102
RTVSPost2010PropOp43
 70
     1
102
RTVSPost2010Prop44ColorIndex
 90
        5
102
RTVSPost2010Prop44ColorRGB
 90
      255
102
RTVSPost2010PropOp44
 70
     1
102
RTVSPost2010Prop45
280
     0
102
RTVSPost2010PropOp45
 70
     1
102
RTVSPost2010Prop46
 90
       50
102
RTVSPost2010PropOp46
 70
     1
102
RTVSPost2010Prop47
 90
       50
102
RTVSPost2010PropOp47
 70
     1
102
RTVSPost2010Prop48
 90
       50
102
RTVSPost2010PropOp48
 70
     1
102
RTVSPost2010Prop49
280
     0
102
RTVSPost2010PropOp49
 70
     1
102
RTVSPost2010Prop50
 90
       50
102
RTVSPost2010PropOp50
 70
     1
102
RTVSPost2010Prop51ColorIndex
 90
      256
102
RTVSPost2010Prop51ColorRGB
 90
-16777216
102
RTVSPost2010PropOp51
 70
     0
102
RTVSPost2010Prop52
140
1.0
102
RTVSPost2010PropOp52
 70
     0
102
RTVSPost2010Prop53
 90
        2
102
RTVSPost2010PropOp53
 70
     1
102
RTVSPost2010Prop54
  1
strokes_ogs.tif
102
RTVSPost2010PropOp54
 70
     1
102
RTVSPost2010Prop55
280
     0
102
RTVSPost2010PropOp55
 70
     1
102
RTVSPost2010Prop56
140
1.0
102
RTVSPost2010PropOp56
 70
     1
102
RTVSPost2010Prop57
140
1.0
102
RTVSPost2010PropOp57
 70
     1
  0
XRECORD
  5
21B
102
{ACAD_REACTORS
330
21A
102
}
330
21A
100
AcDbXrecord
280
     1
102
RTVSPropertyOp0
 70
     1
102
RTVSPropertyOp1
 70
     1
102
RTVSPropertyOp2
 70
     1
102
RTVSPropertyOp3
 70
     1
102
RTVSPropertyOp4
 70
     1
102
RTVSPropertyOp5
 70
     1
102
RTVSPropertyOp6
 70
     1
102
RTVSPropertyOp7
 70
     1
102
RTVSPropertyOp8
 70
     1
102
RTVSPropertyOp9
 70
     1
102
RTVSPropertyOp10
 70
     1
102
RTVSPropertyOp11
 70
     1
102
RTVSPropertyOp12
 70
     1
102
RTVSPropertyOp13
 70
     1
102
RTVSPropertyOp14
 70
     1
102
RTVSPropertyOp15
 70
     1
102
RTVSPropertyOp16
 70
     1
102
RTVSPropertyOp17
 70
     1
102
RTVSPropertyOp18
 70
     1
102
RTVSPropertyOp19
 70
     1
102
RTVSPropertyOp20
 70
     1
102
RTVSPropertyOp21
 70
     1
102
RTVSPropertyOp22
 70
     1
102
RTVSPropertyOp23
 70
     1
102
RTVSPropertyOp24
 70
     1
102
RTVSPropertyOp25
 70
     1
102
RTVSPropertyOp26
 70
     1
102
RTVSPropertyOp27
 70
     1
102
RTVSPropertyOp28
 70
     1
102
RTVSPropertyOp29
 70
     1
102
RTVSPropertyOp30
 70
     1
102
RTVSPropertyOp31
 70
     1
102
RTVSPropertyOp32
 70
     1
102
RTVSPropertyOp33
 70
     1
102
RTVSPropertyOp34
 70
     1
102
RTVSPropertyOp35
 70
     1
102
RTVSPropertyOp36
 70
     1
102
RTVSPropertyOp37
 70
     1
102
RTVSPropertyOp38
 70
     1
102
RTVSPropertyOp39
 70
     1
102
RTVSPropertyOp40
 70
     1
102
RTVSPropertyOp41
 70
     1
102
RTVSPropertyOp42
 70
     1
102
RTVSPropertyOp43
 70
     1
102
RTVSPropertyOp44
 70
     1
102
RTVSPropertyOp45
 70
     1
102
RTVSPropertyOp46
 70
     1
102
RTVSPropertyOp47
 70
     1
102
RTVSPropertyOp48
 70
     1
102
RTVSPropertyOp49
 70
     1
102
RTVSPropertyOp50
 70
     1
102
RTVSPropertyOp51
 70
     0
102
RTVSPropertyOp52
 70
     0
102
RTVSPropertyOp53
 70
     1
102
RTVSPropertyOp54
 70
     1
102
RTVSPropertyOp55
 70
     1
102
RTVSPropertyOp56
 70
     1
102
RTVSPropertyOp57
 70
     1
102
RTVSPost2010Prop28
280
     0
102
RTVSPost2010PropOp28
 70
     1
102
RTVSPost2010Prop29
280
     1
102
RTVSPost2010PropOp29
 70
     1
102
RTVSPost2010Prop30
280
     1
102
RTVSPost2010PropOp30
 70
     1
102
RTVSPost2010Prop31
280
     0
102
RTVSPost2010PropOp31
 70
     1
102
RTVSPost2010Prop32
280
     0
102
RTVSPost2010PropOp32
 70
     1
102
RTVSPost2010Prop33
280
     0
102
RTVSPost2010PropOp33
 70
     1
102
RTVSPost2010Prop34
280
     0
102
RTVSPost2010PropOp34
 70
     1
102
RTVSPost2010Prop35
280
     0
102
RTVSPost2010PropOp35
 70
     1
102
RTVSPost2010Prop36
280
     0
102
RTVSPost2010PropOp36
 70
     1
102
RTVSPost2010Prop37
 90
       50
102
RTVSPost2010PropOp37
 70
     1
102
RTVSPost2010Prop38
140
0.0
102
RTVSPost2010PropOp38
 70
     1
102
RTVSPost2010Prop39
140
1.0
102
RTVSPost2010PropOp39
 70
     1
102
RTVSPost2010Prop40
 90
        0
102
RTVSPost2010PropOp40
 70
     1
102
RTVSPost2010Prop41ColorIndex
 90
       18
102
RTVSPost2010Prop41ColorRGB
 90
        0
102
RTVSPost2010PropOp41
 70
     1
102
RTVSPost2010Prop42
 90
       50
102
RTVSPost2010PropOp42
 70
     1
102
RTVSPost2010Prop43
 90
        3
102
RTVSPost2010PropOp43
 70
     1
102
RTVSPost2010Prop44ColorIndex
 90
        5
102
RTVSPost2010Prop44ColorRGB
 90
      255
102
RTVSPost2010PropOp44
 70
     1
102
RTVSPost2010Prop45
280
     0
102
RTVSPost2010PropOp45
 70
     1
102
RTVSPost2010Prop46
 90
       50
102
RTVSPost2010PropOp46
 70
     1
102
RTVSPost2010Prop47
 90
       50
102
RTVSPost2010PropOp47
 70
     1
102
RTVSPost2010Prop48
 90
       50
102
RTVSPost2010PropOp48
 70
     1
102
RTVSPost2010Prop49
280
     0
102
RTVSPost2010PropOp49
 70
     1
102
RTVSPost2010Prop50
 90
       50
102
RTVSPost2010PropOp50
 70
     1
102
RTVSPost2010Prop51ColorIndex
 90
      256
102
RTVSPost2010Prop51ColorRGB
 90
-16777216
102
RTVSPost2010PropOp51
 70
     0
102
RTVSPost2010Prop52
140
1.0
102
RTVSPost2010PropOp52
 70
     0
102
RTVSPost2010Prop53
 90
        2
102
RTVSPost2010PropOp53
 70
     1
102
RTVSPost2010Prop54
  1
strokes_ogs.tif
102
RTVSPost2010PropOp54
 70
     1
102
RTVSPost2010Prop55
280
     0
102
RTVSPost2010PropOp55
 70
     1
102
RTVSPost2010Prop56
140
1.0
102
RTVSPost2010PropOp56
 70
     1
102
RTVSPost2010Prop57
140
1.0
102
RTVSPost2010PropOp57
 70
     1
  0
ENDSEC
  0
EOF
